File Size972.6 MB (1,019,843,571 bytes)
DownloadClickNUpload | DownloadGG | KrakenFiles
MultiUp: Part1
  • BdUpload
  • DownAce
  • Fichier
  • FileCloud
  • Filerio
  • FilesCdn
  • IndiShare
  • Kbagi
  • Turbobit
  • UpToBox
  • Uppit
, Part2
  • BdUpload
  • DownAce
  • Fichier
  • FileCloud
  • Filerio
  • FilesCdn
  • IndiShare
  • Kbagi
  • Turbobit
  • UpToBox
  • Uppit

ZippyShare: Part1, Part2
HashesCRC32: 4BC20201, MD5: 0A1891FE3A86ACB1036FC99A0EC61D31, SHA1: 931B82DA4280A5FBE7EC9B400CC62699FB9ED6C9, SHA256: 3A69C75E06FB4AAFD0347809841DD6C8DCCDBE442393624EC1B88AB255E4003C, ED2K: 87062A1C1E9BA179783E19C13A856980
Screenshots
screenshotscreenshotscreenshotscreenshotscreenshot
SubtitlesAll Attachments | Signs & Songs [eng, ASS], Full Subtitles [GJM] [eng, ASS]
Additional Info
General
Unique ID                                : 187279648356892364166643365493979731841 (0x8CE4BF8EEAA9D943D0DD4190C3BFD781)
Complete name                            : [LostYears] Kaguya-sama Love is War - S03E04 (WEB 1080p x265 10-bit AAC) [4BC20201].mkv
Format                                   : Matroska
Format version                           : Version 4
File size                                : 973 MiB
Duration                                 : 24 min 0 s
Overall bit rate                         : 5 665 kb/s
Movie name                               : [LostYears] Kaguya-sama Love is War - S03E04 (WEB 1080p x265 10-bit AAC)
Encoded date                             : UTC 2022-05-13 23:04:46
Writing application                      : mkvmerge v67.0.0 ('Under Stars') 64-bit
Writing library                          : libebml v1.4.2 + libmatroska v1.6.4
Attachments                              : GANDHISANS-BOLD.OTF / GANDHISANS-BOLDITALIC.OTF / A-OTF-RyuminStd-Medium-KO.otf / A-OTF-RyuminStd-Ultra-KS.otf / andyb.ttf / arial.ttf / ARNOLD21.TTF / AVENGEANCEMIGHTIESTAVENGER.OTF / BEARPAW.TTF / BLOCKPARTY.TTF / brook23.ttf / BrushStrokes-Heavy ModByArmonth.ttf / CACTUS.TTF / CARTOON.TTF / Chalk Board.otf / Cheryl Hand_V2.ttf / CHINESEROCKSRG-REGULAR.OTF / FOT-MATISSEPRO-EB-TOARU.TTF / FOTC-arstdsongb5heavy.otf / FOTK-YDMincho140.otf / FOTK-YDWingsM.otf / Iwata Mincho Old Pro H.TTF / KOZUKAGOTHICPR6NH.TTF / Lato-Bold.ttf / LAURENCBROWN.TTF / Lazer84.ttf / RampartTLStd-EB-Str.otf / ROUNDEDMPLUS1C-BOLD.TTF / TsukuGoPro-B-Str.otf / TsukuGoPro-H-Str.otf / TsukuMinPr5-B-Stripped.otf / TsukuMinPr5-HV-Stripped.otf / ArchivoNarrow-Bold.ttf / edundot.ttf / MaruFoProStripped-Bold.otf / Periodico W03 Txt Lt.ttf / BaiJamjuree-Medium.ttf

Video
ID                                       : 1
Format                                   : HEVC
Format/Info                              : High Efficiency Video Coding
Format profile                           : Main 10@L5@Main
Codec ID                                 : V_MPEGH/ISO/HEVC
Duration                                 : 24 min 0 s
Bit rate                                 : 4 953 kb/s
Width                                    : 1 920 pixels
Height                                   : 1 080 pixels
Display aspect ratio                     : 16:9
Frame rate mode                          : Constant
Frame rate                               : 23.976 (24000/1001) FPS
Standard                                 : NTSC
Color space                              : YUV
Chroma subsampling                       : 4:2:0
Bit depth                                : 10 bits
Bits/(Pixel*Frame)                       : 0.100
Stream size                              : 850 MiB (87%)
Title                                    : Original encode by LightArrowsEXE@Kaleido
Writing library                          : x265 3.5+8-57e817329:[Windows][MSVC 1900][64 bit] 10bit
Encoding settings                        : cpuid=1111039 / frame-threads=4 / numa-pools=24 / wpp / no-pmode / no-pme / no-psnr / no-ssim / log-level=2 / input-csp=1 / input-res=1920x1080 / interlace=0 / total-frames=34527 / level-idc=0 / high-tier=1 / uhd-bd=0 / ref=6 / no-allow-non-conformance / no-repeat-headers / annexb / no-aud / no-hrd / info / hash=0 / no-temporal-layers / no-open-gop / min-keyint=23 / keyint=240 / gop-lookahead=0 / bframes=16 / b-adapt=2 / b-pyramid / bframe-bias=0 / rc-lookahead=72 / lookahead-slices=4 / scenecut=40 / hist-scenecut=0 / radl=0 / no-splice / no-intra-refresh / ctu=32 / min-cu-size=8 / no-rect / no-amp / max-tu-size=16 / tu-inter-depth=2 / tu-intra-depth=2 / limit-tu=0 / rdoq-level=2 / dynamic-rd=0.00 / no-ssim-rd / signhide / tskip / nr-intra=0 / nr-inter=0 / no-constrained-intra / no-strong-intra-smoothing / max-merge=3 / limit-refs=3 / limit-modes / me=3 / subme=3 / merange=57 / temporal-mvp / no-frame-dup / no-hme / weightp / weightb / no-analyze-src-pics / deblock=-2:-2 / no-sao / no-sao-non-deblock / rd=5 / selective-sao=0 / no-early-skip / no-rskip / no-fast-intra / no-tskip-fast / no-cu-lossless / b-intra / no-splitrd-skip / rdpenalty=0 / psy-rd=2.00 / psy-rdoq=2.00 / no-rd-refine / no-lossless / cbqpoffs=-2 / crqpoffs=-2 / rc=crf / crf=14.8 / qcomp=0.75 / qpstep=4 / stats-write=0 / stats-read=0 / ipratio=1.40 / pbratio=1.30 / aq-mode=3 / aq-strength=0.80 / no-cutree / zone-count=0 / no-strict-cbr / qg-size=32 / no-rc-grain / qpmax=69 / qpmin=0 / no-const-vbv / sar=1 / overscan=0 / videoformat=2 / range=0 / colorprim=1 / transfer=1 / colormatrix=1 / chromaloc=0 / display-window=0 / cll=0,0 / min-luma=64 / max-luma=940 / log2-max-poc-lsb=8 / vui-timing-info / vui-hrd-info / slices=1 / no-opt-qp-pps / no-opt-ref-list-length-pps / no-multi-pass-opt-rps / scenecut-bias=0.05 / hist-threshold=0.03 / no-opt-cu-delta-qp / no-aq-motion / no-hdr10 / no-hdr10-opt / no-dhdr10-opt / no-idr-recovery-sei / analysis-reuse-level=0 / analysis-save-reuse-level=0 / analysis-load-reuse-level=0 / scale-factor=0 / refine-intra=0 / refine-inter=0 / refine-mv=1 / refine-ctu-distortion=0 / no-limit-sao / ctu-info=0 / no-lowpass-dct / refine-analysis-type=0 / copy-pic=1 / max-ausize-factor=1.0 / no-dynamic-refine / no-single-sei / no-hevc-aq / no-svt / no-field / qp-adaptation-range=1.00 / scenecut-aware-qp=0conformance-window-offsets / right=0 / bottom=0 / decoder-max-rate=0 / no-vbv-live-multi-pass
Language                                 : Japanese
Default                                  : Yes
Forced                                   : No
Color range                              : Limited
Color primaries                          : BT.709
Transfer characteristics                 : BT.709
Matrix coefficients                      : BT.709

Audio #1
ID                                       : 2
Format                                   : AAC LC
Format/Info                              : Advanced Audio Codec Low Complexity
Codec ID                                 : A_AAC-2
Duration                                 : 23 min 57 s
Bit rate                                 : 256 kb/s
Channel(s)                               : 2 channels
Channel layout                           : L R
Sampling rate                            : 48.0 kHz
Frame rate                               : 46.875 FPS (1024 SPF)
Compression mode                         : Lossy
Stream size                              : 43.9 MiB (5%)
Title                                    : English 2.0 AAC
Language                                 : English
Default                                  : Yes
Forced                                   : No

Audio #2
ID                                       : 3
Format                                   : AAC LC
Format/Info                              : Advanced Audio Codec Low Complexity
Codec ID                                 : A_AAC-2
Duration                                 : 24 min 0 s
Bit rate                                 : 128 kb/s
Channel(s)                               : 2 channels
Channel layout                           : L R
Sampling rate                            : 44.1 kHz
Frame rate                               : 43.066 FPS (1024 SPF)
Compression mode                         : Lossy
Stream size                              : 22.0 MiB (2%)
Title                                    : Japanese 2.0 AAC
Language                                 : Japanese
Default                                  : No
Forced                                   : No

Text #1
ID                                       : 4
Format                                   : ASS
Codec ID                                 : S_TEXT/ASS
Codec ID/Info                            : Advanced Sub Station Alpha
Duration                                 : 23 min 54 s
Bit rate                                 : 96.3 kb/s
Count of elements                        : 25756
Compression mode                         : Lossless
Stream size                              : 16.5 MiB (2%)
Title                                    : Signs & Songs
Language                                 : English
Default                                  : Yes
Forced                                   : Yes

Text #2
ID                                       : 5
Format                                   : ASS
Codec ID                                 : S_TEXT/ASS
Codec ID/Info                            : Advanced Sub Station Alpha
Duration                                 : 23 min 54 s
Bit rate                                 : 96.4 kb/s
Count of elements                        : 26216
Compression mode                         : Lossless
Stream size                              : 16.5 MiB (2%)
Title                                    : Full Subtitles [GJM]
Language                                 : English
Default                                  : No
Forced                                   : No

Menu
00:00:00.000                             : en:Prologue
00:00:16.000                             : en:OP
00:01:46.000                             : en:Part A - Shinomiya Kaguya's Impossible Task: "The Swallow's Cowry Shell", Part 1
00:08:59.980                             : en:Part B - Ishigami Yuu Wants to Meet Expectations
00:15:22.990                             : en:Part C - Fujiwara Chika Wants to Stay Over
00:22:30.000                             : en:ED
beta
Anime DDL+NZB mirror
Current Time: 06/07/2022 13:33



About/FAQs

Discord