[LostYears] Fruits Basket (2019) - S01E23 (WEB 720p Hi444PP AAC) [3CD1B118].mkv


File Size367.5 MB (385,360,757 bytes)
DownloadClickNUpload | Jheberg | MultiUp
  • BdUpload
  • DownAce
  • Fichier
  • FileCloud
  • Filerio
  • FilesCdn
  • IndiShare
  • Kbagi
  • Turbobit
  • UpToBox
  • Uppit
| OpenLoad | SolidFiles | ZippyShare
Sendspace: Part1, Part2
HashesCRC32: 3CD1B118, MD5: 47872B2D02A413BCCB72CD401047B886, SHA1: C9C96B4163D30F92470C62B61FE16FECAD7D1D3A, SHA256: 6AE213B2B577C3E2CCC68FACD4FBD8BEB617CF2E6C9309F90B8B4461ED825537, ED2K: 25768FEF26814278DD7849CC561FFD23
Screenshots
screenshotscreenshotscreenshotscreenshotscreenshot
SubtitlesAll Attachments | Signs/Songs [LostYears] [eng, ASS], Subtitles [LostYears] [jpn, ASS]
Additional Info
General
Unique ID                                : 167987301653400848034626859220577622191 (0x7E612D6D91265A29C5DCBE8413FD18AF)
Complete name                            : [LostYears] Fruits Basket (2019) - S01E23 (WEB 720p Hi444PP AAC) [3CD1B118].mkv
Format                                   : Matroska
Format version                           : Version 4
File size                                : 368 MiB
Duration                                 : 23 min 50 s
Overall bit rate                         : 2 156 kb/s
Encoded date                             : UTC 2019-10-03 00:31:36
Writing application                      : mkvmerge v37.0.0 ('Leave It') 64-bit
Writing library                          : libebml v1.3.9 + libmatroska v1.5.2
Attachments                              : CorinthianW01-Bold.otf / FOT-CHIAROSTD-B-EN.OTF / FOT-TSUKUOLDGOTHICSTD-B-EN_0.TTF / GandhiSans-Bold_3.otf / GandhiSans-BoldItalic_2.otf / MONTEROS.TTF / RODINPRO-EB.OTF / VAGROLN.TTF

Video
ID                                       : 1
Format                                   : AVC
Format/Info                              : Advanced Video Codec
Format profile                           : High 4:4:4 Predictive@L5
Format settings                          : CABAC / 16 Ref Frames
Format settings, CABAC                   : Yes
Format settings, ReFrames                : 16 frames
Codec ID                                 : V_MPEG4/ISO/AVC
Duration                                 : 23 min 50 s
Bit rate                                 : 1 710 kb/s
Width                                    : 1 280 pixels
Height                                   : 720 pixels
Display aspect ratio                     : 16:9
Frame rate mode                          : Constant
Frame rate                               : 23.976 (24000/1001) FPS
Color space                              : YUV
Chroma subsampling                       : 4:4:4
Bit depth                                : 10 bits
Scan type                                : Progressive
Bits/(Pixel*Frame)                       : 0.077
Stream size                              : 291 MiB (79%)
Title                                    : 720p Hi444PP WEB x264 [Seicher-Raws]
Writing library                          : x264 core 155 r2901M 7d0ff22 (DJATOM's mod)
Encoding settings                        : cabac=1 / ref=16 / deblock=1:-1:-1 / analyse=0x1:0x111 / me=umh / subme=10 / psy=1 / fade_compensate=0.00 / psy_rd=0.70:0.10 / mixed_ref=1 / me_range=32 / chroma_me=1 / trellis=2 / 8x8dct=0 / cqm=0 / deadzone=21,11 / fast_pskip=0 / chroma_qp_offset=-1 / threads=22 / lookahead_threads=5 / sliced_threads=0 / nr=0 / decimate=0 / interlaced=0 / bluray_compat=0 / constrained_intra=0 / bframes=16 / b_pyramid=2 / b_adapt=2 / b_bias=0 / direct=3 / weightb=1 / open_gop=0 / weightp=2 / keyint=320 / keyint_min=24 / scenecut=40 / intra_refresh=0 / rc_lookahead=48 / rc=crf / mbtree=1 / crf=15.0000 / qcomp=0.70 / qpmin=0 / qpmax=81 / qpstep=4 / ip_ratio=1.40 / aq=3:0.80
Language                                 : Japanese
Default                                  : Yes
Forced                                   : No
Color range                              : Limited
Matrix coefficients                      : BT.709

Audio #1
ID                                       : 2
Format                                   : AAC LC
Format/Info                              : Advanced Audio Codec Low Complexity
Codec ID                                 : A_AAC-2
Duration                                 : 23 min 50 s
Bit rate                                 : 253 kb/s
Channel(s)                               : 2 channels
Channel layout                           : L R
Sampling rate                            : 48.0 kHz
Frame rate                               : 46.875 FPS (1024 SPF)
Compression mode                         : Lossy
Stream size                              : 43.2 MiB (12%)
Title                                    : AAC 2.0 [Golumpa]
Language                                 : English
Default                                  : Yes
Forced                                   : No

Audio #2
ID                                       : 3
Format                                   : AAC LC
Format/Info                              : Advanced Audio Codec Low Complexity
Codec ID                                 : A_AAC-2
Duration                                 : 23 min 50 s
Bit rate                                 : 128 kb/s
Channel(s)                               : 2 channels
Channel layout                           : L R
Sampling rate                            : 44.1 kHz
Frame rate                               : 43.066 FPS (1024 SPF)
Compression mode                         : Lossy
Stream size                              : 21.8 MiB (6%)
Title                                    : AAC 2.0 [Seicher-Raws]
Language                                 : Japanese
Default                                  : No
Forced                                   : No

Text #1
ID                                       : 4
Format                                   : ASS
Codec ID                                 : S_TEXT/ASS
Codec ID/Info                            : Advanced Sub Station Alpha
Duration                                 : 23 min 12 s
Bit rate                                 : 12.1 kb/s
Count of elements                        : 2999
Compression mode                         : Lossless
Stream size                              : 2.02 MiB (1%)
Title                                    : Signs/Songs [LostYears]
Language                                 : English
Default                                  : Yes
Forced                                   : Yes

Text #2
ID                                       : 5
Format                                   : ASS
Codec ID                                 : S_TEXT/ASS
Codec ID/Info                            : Advanced Sub Station Alpha
Duration                                 : 23 min 47 s
Bit rate                                 : 12.0 kb/s
Count of elements                        : 3366
Compression mode                         : Lossless
Stream size                              : 2.04 MiB (1%)
Title                                    : Subtitles [LostYears]
Language                                 : Japanese
Default                                  : No
Forced                                   : No

Menu
00:00:00.033                             : en:Intro
00:00:32.010                             : en:OP
00:02:01.970                             : en:Episode
00:22:15.020                             : en:ED
00:23:45.020                             : en:Preview
beta
Anime DDL+NZB mirror
Current Time: 02/12/2020 03:49



About/FAQs