File Size361.6 MB (379,149,234 bytes)
DownloadClickNUpload | Jheberg | MultiUp
  • BdUpload
  • DownAce
  • Fichier
  • FileCloud
  • Filerio
  • FilesCdn
  • IndiShare
  • Kbagi
  • Solidfiles
  • Turbobit
  • UpToBox
  • Uppit
| OpenLoad | ZippyShare
Sendspace: Part1, Part2
HashesCRC32: 4252BC92, MD5: FB21786A38347C109D6762FF78F5C00B, SHA1: 1639BB9F95AD77084E7DEACA88BDFD5B052695A2, SHA256: D5ECDD8B667B066EB28F70A806E5AB99FB2C59738BAFB1D820655A6DAC064A1F, ED2K: 62FB6CEECA5CEF6E068A6EC02E82F89F
Screenshots
screenshotscreenshotscreenshotscreenshotscreenshot
SubtitlesAll Attachments | Signs/Songs [LostYears] [eng, ASS], Subtitles [LostYears] [eng, ASS]
Additional Info
General
Unique ID                                : 302911817598455010445929826555740144340 (0xE3E2B1AA203101045A73770377B1C2D4)
Complete name                            : [LostYears] Fruits Basket (2019) - S01E03 (WEB 720p Hi444PP AAC) [4252BC92].mkv
Format                                   : Matroska
Format version                           : Version 4
File size                                : 362 MiB
Duration                                 : 23 min 50 s
Overall bit rate                         : 2 121 kb/s
Encoded date                             : UTC 2019-05-02 17:59:13
Writing application                      : mkvmerge v33.1.0 ('Primrose') 64-bit
Writing library                          : libebml v1.3.7 + libmatroska v1.5.0
Attachments                              : ACKIDENT.TTF / AFTERGLOW-REGULAR.TTF / Butter Layer.ttf / CorinthianW01-Bold.otf / DK Crayon Crumble.ttf / DK Rumpelstiltskin.otf / GandhiSans-Bold_3.otf / GandhiSans-BoldItalic_2.otf / VIRGULA VULGARIS BOLD.TTF

Video
ID                                       : 1
Format                                   : AVC
Format/Info                              : Advanced Video Codec
Format profile                           : High 4:4:4 Predictive@L5
Format settings                          : CABAC / 16 Ref Frames
Format settings, CABAC                   : Yes
Format settings, ReFrames                : 16 frames
Codec ID                                 : V_MPEG4/ISO/AVC
Duration                                 : 23 min 49 s
Bit rate                                 : 1 682 kb/s
Width                                    : 1 280 pixels
Height                                   : 720 pixels
Display aspect ratio                     : 16:9
Frame rate mode                          : Constant
Frame rate                               : 23.976 (24000/1001) FPS
Color space                              : YUV
Chroma subsampling                       : 4:4:4
Bit depth                                : 10 bits
Scan type                                : Progressive
Bits/(Pixel*Frame)                       : 0.076
Stream size                              : 287 MiB (79%)
Title                                    : 720p Hi444PP WEB x264 [Seicher-Raws]
Writing library                          : x264 core 155 r2901M 7d0ff22 (DJATOM's mod)
Encoding settings                        : cabac=1 / ref=16 / deblock=1:-1:-1 / analyse=0x1:0x111 / me=umh / subme=10 / psy=1 / fade_compensate=0.00 / psy_rd=0.70:0.10 / mixed_ref=1 / me_range=32 / chroma_me=1 / trellis=2 / 8x8dct=0 / cqm=0 / deadzone=21,11 / fast_pskip=0 / chroma_qp_offset=-1 / threads=12 / lookahead_threads=3 / sliced_threads=0 / nr=0 / decimate=0 / interlaced=0 / bluray_compat=0 / constrained_intra=0 / bframes=16 / b_pyramid=2 / b_adapt=2 / b_bias=0 / direct=3 / weightb=1 / open_gop=0 / weightp=2 / keyint=320 / keyint_min=24 / scenecut=40 / intra_refresh=0 / rc_lookahead=48 / rc=crf / mbtree=1 / crf=15.0000 / qcomp=0.70 / qpmin=0 / qpmax=81 / qpstep=4 / ip_ratio=1.40 / aq=3:0.80
Language                                 : Japanese
Default                                  : Yes
Forced                                   : No
Color range                              : Limited
Matrix coefficients                      : BT.709

Audio #1
ID                                       : 2
Format                                   : AAC LC
Format/Info                              : Advanced Audio Codec Low Complexity
Codec ID                                 : A_AAC-2
Duration                                 : 23 min 50 s
Bit rate                                 : 253 kb/s
Channel(s)                               : 2 channels
Channel layout                           : L R
Sampling rate                            : 48.0 kHz
Frame rate                               : 46.875 FPS (1024 SPF)
Compression mode                         : Lossy
Stream size                              : 43.2 MiB (12%)
Title                                    : AAC 2.0 [Golumpa]
Language                                 : English
Default                                  : Yes
Forced                                   : No

Audio #2
ID                                       : 3
Format                                   : AAC LC
Format/Info                              : Advanced Audio Codec Low Complexity
Codec ID                                 : A_AAC-2
Duration                                 : 23 min 50 s
Bit rate                                 : 128 kb/s
Channel(s)                               : 2 channels
Channel layout                           : L R
Sampling rate                            : 44.1 kHz
Frame rate                               : 43.066 FPS (1024 SPF)
Compression mode                         : Lossy
Stream size                              : 21.8 MiB (6%)
Title                                    : AAC 2.0 [Seicher-Raws]
Language                                 : Japanese
Default                                  : No
Forced                                   : No

Text #1
ID                                       : 4
Format                                   : ASS
Codec ID                                 : S_TEXT/ASS
Codec ID/Info                            : Advanced Sub Station Alpha
Duration                                 : 23 min 49 s
Bit rate                                 : 22.1 kb/s
Count of elements                        : 3458
Compression mode                         : Lossless
Stream size                              : 3.76 MiB (1%)
Title                                    : Signs/Songs [LostYears]
Language                                 : English
Default                                  : Yes
Forced                                   : Yes

Text #2
ID                                       : 5
Format                                   : ASS
Codec ID                                 : S_TEXT/ASS
Codec ID/Info                            : Advanced Sub Station Alpha
Duration                                 : 23 min 49 s
Bit rate                                 : 22.2 kb/s
Count of elements                        : 3818
Compression mode                         : Lossless
Stream size                              : 3.78 MiB (1%)
Title                                    : Subtitles [LostYears]
Language                                 : English
Default                                  : No
Forced                                   : No

Menu
00:00:00.033                             : en:Intro
00:03:10.960                             : en:OP
00:04:41.010                             : en:Episode
00:22:13.720                             : en:ED
00:23:44.940                             : en:Preview
beta
Anime DDL+NZB mirror
Current Time: 12/11/2019 03:32



About/FAQs