File Size974.2 MB (1,021,530,349 bytes)
DownloadAnonFiles | ClickNUpload | DropAPK | Free
MultiUp: Part1
  • BdUpload
  • DownAce
  • Fichier
  • FileCloud
  • Filerio
  • FilesCdn
  • IndiShare
  • Kbagi
  • Turbobit
  • UpToBox
  • Uppit
, Part2
  • BdUpload
  • DownAce
  • Fichier
  • FileCloud
  • Filerio
  • FilesCdn
  • IndiShare
  • Kbagi
  • Turbobit
  • UpToBox
  • Uppit

SolidFiles: Part1, Part2
ZippyShare: Part1, Part2
HashesCRC32: 6FA36404, MD5: 23D47B13C43F9BD050E80FC710C6AC01, SHA1: B2F10F75773118FBB0A9DA3DF3D17E4E1573856D, SHA256: 179696AAF5EC9C3C696E2BD4DD24E5E6C18C62FA95405F62560BCA43190AA153, ED2K: 7A090AC93EEAEF17869C91CACE9E5FFB
Screenshots
screenshotscreenshotscreenshotscreenshotscreenshot
SubtitlesAll Attachments | Signs & Songs [zxx, ASS], Full Subtitles [GJM] [eng, ASS]
Additional Info
General
Unique ID                                : 272127463225910308597404361648039846471 (0xCCB9D7CF9D3E00677E6857A5F2E8E247)
Complete name                            : [LostYears] The Day I Became a God - 09 (WEB 1080p x264 10-bit AAC) [6FA36404].mkv
Format                                   : Matroska
Format version                           : Version 4
File size                                : 974 MiB
Duration                                 : 24 min 0 s
Overall bit rate                         : 5 675 kb/s
Encoded date                             : UTC 2021-01-31 03:37:25
Writing application                      : mkvmerge v52.0.0 ('Secret For The Mad') 64-bit
Writing library                          : libebml v1.4.1 + libmatroska v1.6.2
Attachments                              : calibri.ttf / CHUU2-NEXT.TTF / GANDHISANS-BOLD.OTF / GANDHISANS-BOLDITALIC.OTF / HLBRUSH3BK.TTF / IWATAMINCHOOLDPROH-TR.TTF / KINGTHINGSSERIFIQUELIGHT.TTF / LATO-LIGHT.TTF / MATISSEMINORIPRO-B-STR.OTF / OXFORD.TTF / VELOURSEMIBOLD.OTF / WCRHESUSBBTA.OTF

Video
ID                                       : 1
Format                                   : AVC
Format/Info                              : Advanced Video Codec
Format profile                           : High 10@L5.1
Format settings                          : CABAC / 16 Ref Frames
Format settings, CABAC                   : Yes
Format settings, ReFrames                : 16 frames
Codec ID                                 : V_MPEG4/ISO/AVC
Duration                                 : 24 min 0 s
Bit rate                                 : 5 132 kb/s
Width                                    : 1 920 pixels
Height                                   : 1 080 pixels
Display aspect ratio                     : 16:9
Frame rate mode                          : Constant
Frame rate                               : 23.976 (24000/1001) FPS
Color space                              : YUV
Chroma subsampling                       : 4:2:0
Bit depth                                : 10 bits
Scan type                                : Progressive
Bits/(Pixel*Frame)                       : 0.103
Stream size                              : 881 MiB (90%)
Title                                    : GJM
Writing library                          : x264 core 161 r3027 4121277
Encoding settings                        : cabac=1 / ref=16 / deblock=1:-2:-2 / analyse=0x3:0x133 / me=umh / subme=10 / psy=1 / psy_rd=0.85:0.00 / mixed_ref=1 / me_range=24 / chroma_me=1 / trellis=2 / 8x8dct=1 / cqm=0 / deadzone=21,11 / fast_pskip=0 / chroma_qp_offset=-2 / threads=4 / lookahead_threads=1 / sliced_threads=0 / nr=0 / decimate=0 / interlaced=0 / bluray_compat=0 / constrained_intra=0 / bframes=16 / b_pyramid=2 / b_adapt=2 / b_bias=0 / direct=1 / weightb=1 / open_gop=0 / weightp=2 / keyint=360 / keyint_min=23 / scenecut=40 / intra_refresh=0 / rc_lookahead=60 / rc=crf / mbtree=1 / crf=14.0 / qcomp=0.70 / qpmin=0 / qpmax=81 / qpstep=4 / ip_ratio=1.40 / aq=3:0.90
Language                                 : Japanese
Default                                  : Yes
Forced                                   : No
Color range                              : Limited
Color primaries                          : BT.709
Transfer characteristics                 : BT.709
Matrix coefficients                      : BT.709

Audio #1
ID                                       : 2
Format                                   : AAC LC
Format/Info                              : Advanced Audio Codec Low Complexity
Codec ID                                 : A_AAC-2
Duration                                 : 24 min 0 s
Bit rate                                 : 253 kb/s
Channel(s)                               : 2 channels
Channel layout                           : L R
Sampling rate                            : 48.0 kHz
Frame rate                               : 46.875 FPS (1024 SPF)
Compression mode                         : Lossy
Delay relative to video                  : 16 ms
Stream size                              : 43.5 MiB (4%)
Title                                    : English
Language                                 : English
Default                                  : Yes
Forced                                   : No

Audio #2
ID                                       : 3
Format                                   : AAC LC
Format/Info                              : Advanced Audio Codec Low Complexity
Codec ID                                 : A_AAC-2
Duration                                 : 24 min 0 s
Bit rate                                 : 253 kb/s
Channel(s)                               : 2 channels
Channel layout                           : L R
Sampling rate                            : 48.0 kHz
Frame rate                               : 46.875 FPS (1024 SPF)
Compression mode                         : Lossy
Stream size                              : 43.5 MiB (4%)
Title                                    : Japanese
Language                                 : Japanese
Default                                  : No
Forced                                   : No

Text #1
ID                                       : 4
Format                                   : ASS
Codec ID                                 : S_TEXT/ASS
Codec ID/Info                            : Advanced Sub Station Alpha
Duration                                 : 20 min 24 s
Bit rate                                 : 6 770 b/s
Count of elements                        : 2331
Compression mode                         : Lossless
Stream size                              : 1 012 KiB (0%)
Title                                    : Signs & Songs
Language                                 : zxx
Default                                  : Yes
Forced                                   : Yes

Text #2
ID                                       : 5
Format                                   : ASS
Codec ID                                 : S_TEXT/ASS
Codec ID/Info                            : Advanced Sub Station Alpha
Duration                                 : 22 min 13 s
Bit rate                                 : 6 358 b/s
Count of elements                        : 2714
Compression mode                         : Lossless
Stream size                              : 1.01 MiB (0%)
Title                                    : Full Subtitles [GJM]
Language                                 : English
Default                                  : No
Forced                                   : No

Menu
00:00:00.000                             : en:Intro
00:01:47.024                             : en:OP
00:03:16.988                             : en:Main Episode
00:22:30.057                             : en:ED
beta
Anime DDL+NZB mirror
Current Time: 19/10/2021 12:43



About/FAQs

Discord