File Size3.787 GB (4,066,029,527 bytes)
DownloadDropAPK: Part1, Part2
Free: Part1, Part2, Part3, Part4
MultiUp: Part1
  • BdUpload
  • DownAce
  • Fichier
  • FileCloud
  • Filerio
  • FilesCdn
  • IndiShare
  • Kbagi
  • Turbobit
  • UpToBox
  • Uppit
, Part2
  • BdUpload
  • DownAce
  • Fichier
  • FileCloud
  • Filerio
  • FilesCdn
  • IndiShare
  • Kbagi
  • Turbobit
  • UpToBox
  • Uppit
, Part3
  • BdUpload
  • DownAce
  • Fichier
  • FileCloud
  • Filerio
  • FilesCdn
  • IndiShare
  • Kbagi
  • Turbobit
  • UpToBox
  • Uppit
, Part4
  • BdUpload
  • DownAce
  • Fichier
  • FileCloud
  • Filerio
  • FilesCdn
  • IndiShare
  • Kbagi
  • Turbobit
  • UpToBox
  • Uppit
, Part5
  • BdUpload
  • DownAce
  • Fichier
  • FileCloud
  • Filerio
  • FilesCdn
  • IndiShare
  • Kbagi
  • Turbobit
  • UpToBox
  • Uppit
, Part6
  • BdUpload
  • DownAce
  • Fichier
  • FileCloud
  • Filerio
  • FilesCdn
  • IndiShare
  • Kbagi
  • Turbobit
  • UpToBox
  • Uppit
, Part7
  • BdUpload
  • DownAce
  • Fichier
  • FileCloud
  • Filerio
  • FilesCdn
  • IndiShare
  • Kbagi
  • Turbobit
  • UpToBox
  • Uppit
, Part8
  • BdUpload
  • DownAce
  • Fichier
  • FileCloud
  • Filerio
  • FilesCdn
  • IndiShare
  • Kbagi
  • Turbobit
  • UpToBox
  • Uppit

SolidFiles: Part1, Part2, Part3, Part4, Part5, Part6, Part7, Part8
ZippyShare: Part1, Part2, Part3, Part4, Part5, Part6, Part7, Part8
HashesCRC32: 8B872812, MD5: DC66664A4F1D9A47C052A5E848581F27, SHA1: 3D902C69382E3A4C2FDE12CB5C6BB627DE582451, SHA256: 3846CA09D05D552C8E14E662D3F7D21C2216F3B9B9C5E91B58731F97C057D877, ED2K: CEC43FF3AD432D9D53793328E256F6CB
Screenshots
screenshotscreenshotscreenshotscreenshotscreenshot
SubtitlesAll Attachments | English Modified [eng, ASS], English Aniplex [eng, ASS]
Additional Info
General
Unique ID                                : 192040220657431004109580472928749498135 (0x907999E4E8186085A290DDE3D6EC2F17)
Complete name                            : [KRP] Fate ⁄ Grand Order Shinsei Entaku Ryouiki Camelot 1 - Wandering; Agateram (WEB 1920x1080 x264 DD+).mkv
Format                                   : Matroska
Format version                           : Version 4
File size                                : 3.79 GiB
Duration                                 : 1 h 29 min
Overall bit rate                         : 6 039 kb/s
Encoded date                             : UTC 2021-05-02 17:58:34
Writing application                      : mkvmerge v56.1.0 ('My Friend') 64-bit
Writing library                          : libebml v1.4.2 + libmatroska v1.6.4
Attachments                              : GandhiSans-Bold.otf / GandhiSans-BoldItalic.otf / GandhiSans-Italic.otf / GandhiSans-Regular.otf / BTTTRIAL.otf

Video
ID                                       : 1
Format                                   : AVC
Format/Info                              : Advanced Video Codec
Format profile                           : High@L4
Format settings                          : CABAC / 4 Ref Frames
Format settings, CABAC                   : Yes
Format settings, ReFrames                : 4 frames
Codec ID                                 : V_MPEG4/ISO/AVC
Duration                                 : 1 h 29 min
Bit rate                                 : 5 812 kb/s
Width                                    : 1 920 pixels
Height                                   : 1 080 pixels
Display aspect ratio                     : 16:9
Frame rate mode                          : Constant
Frame rate                               : 23.976 (24000/1001) FPS
Color space                              : YUV
Chroma subsampling                       : 4:2:0
Bit depth                                : 8 bits
Scan type                                : Progressive
Bits/(Pixel*Frame)                       : 0.117
Stream size                              : 3.64 GiB (96%)
Default                                  : Yes
Forced                                   : No
Color range                              : Limited
Color primaries                          : BT.709
Transfer characteristics                 : BT.709
Matrix coefficients                      : BT.709

Audio
ID                                       : 2
Format                                   : E-AC-3
Format/Info                              : Enhanced AC-3
Commercial name                          : Dolby Digital Plus
Codec ID                                 : A_EAC3
Duration                                 : 1 h 29 min
Bit rate mode                            : Constant
Bit rate                                 : 224 kb/s
Channel(s)                               : 2 channels
Channel layout                           : L R
Sampling rate                            : 48.0 kHz
Frame rate                               : 31.250 FPS (1536 SPF)
Bit depth                                : 32 bits
Compression mode                         : Lossy
Stream size                              : 144 MiB (4%)
Language                                 : Japanese
Service kind                             : Complete Main
Default                                  : Yes
Forced                                   : No

Text #1
ID                                       : 3
Format                                   : ASS
Codec ID                                 : S_TEXT/ASS
Codec ID/Info                            : Advanced Sub Station Alpha
Duration                                 : 1 h 29 min
Bit rate                                 : 91 b/s
Count of elements                        : 1267
Compression mode                         : Lossless
Stream size                              : 59.5 KiB (0%)
Title                                    : English Modified
Language                                 : English
Default                                  : Yes
Forced                                   : No

Text #2
ID                                       : 4
Format                                   : ASS
Codec ID                                 : S_TEXT/ASS
Codec ID/Info                            : Advanced Sub Station Alpha
Duration                                 : 1 h 29 min
Bit rate                                 : 94 b/s
Count of elements                        : 1412
Compression mode                         : Lossless
Stream size                              : 61.6 KiB (0%)
Title                                    : English Aniplex
Language                                 : English
Default                                  : No
Forced                                   : No
beta
Anime DDL+NZB mirror
Current Time: 08/08/2022 10:53



About/FAQs

Discord