[Kozame] Odekake Kozame (Little Shark's Outings) - 49 [1080p] [EFEEA1E3].mkv


File Size13.07 MB (13,703,854 bytes)
DownloadClickNUpload | DailyUploads | DownloadGG | GoFile | KrakenFiles | MdiaLoad | MultiUp
  • BdUpload
  • DownAce
  • Fichier
  • FileCloud
  • Filerio
  • FilesCdn
  • IndiShare
  • Kbagi
  • Turbobit
  • UpToBox
  • Uppit
| Uppit
HashesCRC32: EFEEA1E3, MD5: 2842F993142551CB2E9D7556D044B705, SHA1: 68E8C7FB96D67FF9DA98042C2840F745B83EEA13, SHA256: 1C84882156FA36920F6D942A4F4C57BFFD4D5D653FE0D321229245376DFE2A11, ED2K: 9D451CB63C417F198B75288245D379E4
Screenshots
screenshotscreenshot
SubtitlesAll Attachments | Kozame [eng, ASS]
Additional Info
General
Unique ID                                : 105405282829063513298089956025608786138 (0x4F4C51AD3DE5E30540C4894DB7D950DA)
Complete name                            : [Kozame] Odekake Kozame (Little Shark's Outings) - 49 [1080p] [EFEEA1E3].mkv
Format                                   : Matroska
Format version                           : Version 4
File size                                : 13.1 MiB
Duration                                 : 1 min 39 s
Overall bit rate                         : 1 105 kb/s
Frame rate                               : 23.976 FPS
Encoded date                             : 2024-04-02 23:19:58 UTC
Writing application                      : mkvmerge v83.0 ('Circle Of Friends') 64-bit
Writing library                          : libebml v1.4.5 + libmatroska v1.7.1
Attachments                              : Bolide-Regular.ttf / LEHN026.ttf / Bright Chalk.ttf / calibrii.ttf / DFPMaruMoji-CP-W9.ttf / arial.ttf / calibri.ttf / DCAi-W5.ttf / DFMaruMoji-W3.ttf

Video
ID                                       : 1
Format                                   : AVC
Format/Info                              : Advanced Video Codec
Format profile                           : High@L4
Format settings                          : CABAC / 3 Ref Frames
Format settings, CABAC                   : Yes
Format settings, Reference frames        : 3 frames
Codec ID                                 : V_MPEG4/ISO/AVC
Duration                                 : 1 min 39 s
Bit rate                                 : 530 kb/s
Width                                    : 1 920 pixels
Height                                   : 1 080 pixels
Display aspect ratio                     : 16:9
Frame rate mode                          : Constant
Frame rate                               : 23.976 (24000/1001) FPS
Color space                              : YUV
Chroma subsampling                       : 4:2:0
Bit depth                                : 8 bits
Scan type                                : Progressive
Bits/(Pixel*Frame)                       : 0.011
Stream size                              : 6.26 MiB (48%)
Writing library                          : x264 core 155 r2901 7d0ff22
Default                                  : Yes
Forced                                   : No
Color range                              : Limited
Color primaries                          : BT.709
Transfer characteristics                 : BT.709
Matrix coefficients                      : BT.709

Audio
ID                                       : 2
Format                                   : AAC LC
Format/Info                              : Advanced Audio Codec Low Complexity
Codec ID                                 : A_AAC-2
Duration                                 : 1 min 39 s
Bit rate                                 : 128 kb/s
Channel(s)                               : 2 channels
Channel layout                           : L R
Sampling rate                            : 44.1 kHz
Frame rate                               : 43.066 FPS (1024 SPF)
Compression mode                         : Lossy
Stream size                              : 1.51 MiB (12%)
Language                                 : Japanese
Default                                  : Yes
Forced                                   : No

Text
ID                                       : 3
Format                                   : ASS
Codec ID                                 : S_TEXT/ASS
Codec ID/Info                            : Advanced Sub Station Alpha
Duration                                 : 1 min 39 s
Bit rate                                 : 5 252 b/s
Frame rate                               : 5.542 FPS
Count of elements                        : 549
Compression mode                         : Lossless
Stream size                              : 63.5 KiB (0%)
Title                                    : Kozame
Language                                 : English
Default                                  : Yes
Forced                                   : Yes

Menu
00:00:00.000                             : Episode 49
00:01:09.069                             : Ending
beta
Anime DDL+NZB mirror
Current Time: 23/05/2024 06:14



About/FAQs

Discord