File Size2.018 GB (2,166,993,234 bytes)
DownloadDropAPK: Part1, Part2
Free: Part1, Part2, Part3
MultiUp: Part1
  • BdUpload
  • DownAce
  • Fichier
  • FileCloud
  • Filerio
  • FilesCdn
  • IndiShare
  • Kbagi
  • Turbobit
  • UpToBox
  • Uppit
, Part2
  • BdUpload
  • DownAce
  • Fichier
  • FileCloud
  • Filerio
  • FilesCdn
  • IndiShare
  • Kbagi
  • Turbobit
  • UpToBox
  • Uppit
, Part3
  • BdUpload
  • DownAce
  • Fichier
  • FileCloud
  • Filerio
  • FilesCdn
  • IndiShare
  • Kbagi
  • Turbobit
  • UpToBox
  • Uppit
, Part4
  • BdUpload
  • DownAce
  • Fichier
  • FileCloud
  • Filerio
  • FilesCdn
  • IndiShare
  • Kbagi
  • Turbobit
  • UpToBox
  • Uppit
, Part5
  • BdUpload
  • DownAce
  • Fichier
  • FileCloud
  • Filerio
  • FilesCdn
  • IndiShare
  • Kbagi
  • Turbobit
  • UpToBox
  • Uppit

SolidFiles: Part1, Part2, Part3, Part4, Part5
ZippyShare: Part1, Part2, Part3, Part4, Part5
HashesCRC32: 4DF0C3FB, MD5: 31B34ADD81315A41D58B921C01A1A7EC, SHA1: C013639FDE5F5DCDDF79C6F15698293E422542AD, SHA256: 7E844FB66FF9FC872C223588AD7C7F332D1A7A305F319F2BEE595B615295B93C, ED2K: D39AC1E9741A8342DDD0F4B3870125E0
Screenshots
screenshotscreenshotscreenshotscreenshotscreenshot
SubtitlesAll Attachments | Signs/Songs | kmplx [eng, ASS], Full Subtitles | kmplx [eng, ASS], Signs/Songs | Funimation [eng, PGS], Full Subtitles | Funimation [eng, PGS]
Additional Info
General
Unique ID                                : 254283069905862786689714184557165296588 (0xBF4D234B5543EFEBC3A383A2B34C3BCC)
Complete name                            : [kmplx] The Future Diary - 01 - Sign Up (BD 1080p x264 Hi10p FLAC) [4DF0C3FB].mkv
Format                                   : Matroska
Format version                           : Version 4
File size                                : 2.02 GiB
Duration                                 : 25 min 20 s
Overall bit rate mode                    : Variable
Overall bit rate                         : 11.4 Mb/s
Encoded date                             : UTC 2021-05-17 22:31:02
Writing application                      : mkvmerge v56.1.0 ('My Friend') 64-bit
Writing library                          : libebml v1.4.2 + libmatroska v1.6.4
Attachments                              : HGRGM.TTC / JAPAB__.TTF / KozGoPr6N-Heavy.otf / KOZGOPR6N-HEAVY_0.OTF / Lintel_Reg.ttf / MARIOLUIGI2.TTF / Quant Text W01 Medium.ttf / raavi.ttf / raavib.ttf / ROCK.TTF / Rosario-Bold.ttf / SANFW_.TTF / Segoe UI.ttf / angelina.TTF / arial.ttf / ARLRDBD.TTF / Begum-Regular.ttf / BUKA BIRD.TTF / corbelb.ttf / DECIBEL.TTF / erasdus0.ttf / FROMWHEREYOUARE.TTF / GRENDB.TTF / HGGothicM-01.ttf / HGGothicM-01.ttf / HGRGM.TTC / JAPAB__.TTF / KozGoPr6N-Heavy.otf / KOZGOPR6N-HEAVY_0.OTF / Lintel_Reg.ttf / MARIOLUIGI2.TTF / Quant Text W01 Medium.ttf / raavi.ttf / raavib.ttf / ROCK.TTF / Rosario-Bold.ttf / SANFW_.TTF / Segoe UI.ttf / angelina.TTF / arial.ttf / ARLRDBD.TTF / Begum-Regular.ttf / BUKA BIRD.TTF / corbelb.ttf / DECIBEL.TTF / erasdus0.ttf / FROMWHEREYOUARE.TTF / GRENDB.TTF

Video
ID                                       : 1
Format                                   : AVC
Format/Info                              : Advanced Video Codec
Format profile                           : High 10@L4.1
Format settings                          : CABAC / 4 Ref Frames
Format settings, CABAC                   : Yes
Format settings, ReFrames                : 4 frames
Codec ID                                 : V_MPEG4/ISO/AVC
Duration                                 : 25 min 20 s
Bit rate                                 : 7 935 kb/s
Width                                    : 1 920 pixels
Height                                   : 1 080 pixels
Display aspect ratio                     : 16:9
Frame rate mode                          : Constant
Frame rate                               : 23.976 (24000/1001) FPS
Color space                              : YUV
Chroma subsampling                       : 4:2:0
Bit depth                                : 10 bits
Scan type                                : Progressive
Bits/(Pixel*Frame)                       : 0.160
Stream size                              : 1.40 GiB (70%)
Title                                    : AVC | 10-bit | CRF 16.5 | JPN BD | [sergey_krs]
Writing library                          : x264 core 120 r2120 0c7dab9
Encoding settings                        : cabac=1 / ref=4 / deblock=1:-2:-2 / analyse=0x3:0x133 / me=umh / subme=9 / psy=1 / psy_rd=0.70:0.00 / mixed_ref=1 / me_range=24 / chroma_me=1 / trellis=2 / 8x8dct=1 / cqm=0 / deadzone=21,11 / fast_pskip=1 / chroma_qp_offset=-2 / threads=12 / sliced_threads=0 / nr=0 / decimate=0 / interlaced=0 / bluray_compat=0 / constrained_intra=0 / bframes=8 / b_pyramid=2 / b_adapt=2 / b_bias=0 / direct=3 / weightb=1 / open_gop=0 / weightp=2 / keyint=240 / keyint_min=25 / scenecut=40 / intra_refresh=0 / rc=crf / mbtree=0 / crf=16.5 / qcomp=0.60 / qpmin=8 / qpmax=38 / qpstep=4 / ip_ratio=1.40 / pb_ratio=1.30 / aq=1:1.00
Default                                  : Yes
Forced                                   : No

Audio #1
ID                                       : 2
Format                                   : FLAC
Format/Info                              : Free Lossless Audio Codec
Codec ID                                 : A_FLAC
Duration                                 : 25 min 18 s
Bit rate mode                            : Variable
Bit rate                                 : 2 535 kb/s
Channel(s)                               : 6 channels
Channel layout                           : L R C LFE Ls Rs
Sampling rate                            : 48.0 kHz
Frame rate                               : 11.719 FPS (4096 SPF)
Bit depth                                : 24 bits
Detected bit depth                       : 20 bits
Compression mode                         : Lossless
Delay relative to video                  : 42 ms
Stream size                              : 459 MiB (22%)
Title                                    : English 5.1 | FLAC 20-bit
Writing library                          : libFLAC 1.3.3 (UTC 2019-08-04)
Language                                 : English
Default                                  : Yes
Forced                                   : No

Audio #2
ID                                       : 3
Format                                   : FLAC
Format/Info                              : Free Lossless Audio Codec
Codec ID                                 : A_FLAC
Duration                                 : 25 min 20 s
Bit rate mode                            : Variable
Bit rate                                 : 679 kb/s
Channel(s)                               : 2 channels
Channel layout                           : L R
Sampling rate                            : 48.0 kHz
Frame rate                               : 11.719 FPS (4096 SPF)
Bit depth                                : 16 bits
Compression mode                         : Lossless
Stream size                              : 123 MiB (6%)
Title                                    : Japanese 2.0 | FLAC 16-bit
Writing library                          : libFLAC 1.3.3 (UTC 2019-08-04)
Language                                 : Japanese
Default                                  : No
Forced                                   : No

Text #1
ID                                       : 4
Format                                   : ASS
Codec ID                                 : S_TEXT/ASS
Codec ID/Info                            : Advanced Sub Station Alpha
Duration                                 : 25 min 5 s
Bit rate                                 : 5 289 b/s
Count of elements                        : 7185
Compression mode                         : Lossless
Stream size                              : 972 KiB (0%)
Title                                    : Signs/Songs | kmplx
Language                                 : English
Default                                  : Yes
Forced                                   : No

Text #2
ID                                       : 5
Format                                   : ASS
Codec ID                                 : S_TEXT/ASS
Codec ID/Info                            : Advanced Sub Station Alpha
Duration                                 : 25 min 14 s
Bit rate                                 : 5 142 b/s
Count of elements                        : 7037
Compression mode                         : Lossless
Stream size                              : 951 KiB (0%)
Title                                    : Full Subtitles | kmplx
Language                                 : English
Default                                  : No
Forced                                   : No

Text #3
ID                                       : 6
Format                                   : PGS
Muxing mode                              : zlib
Codec ID                                 : S_HDMV/PGS
Codec ID/Info                            : Picture based subtitle format used on BDs/HD-DVDs
Duration                                 : 25 min 5 s
Bit rate                                 : 21.1 kb/s
Count of elements                        : 122
Stream size                              : 3.78 MiB (0%)
Title                                    : Signs/Songs | Funimation
Language                                 : English
Default                                  : No
Forced                                   : No

Text #4
ID                                       : 7
Format                                   : PGS
Muxing mode                              : zlib
Codec ID                                 : S_HDMV/PGS
Codec ID/Info                            : Picture based subtitle format used on BDs/HD-DVDs
Duration                                 : 25 min 14 s
Bit rate                                 : 58.5 kb/s
Count of elements                        : 796
Stream size                              : 10.6 MiB (1%)
Title                                    : Full Subtitles | Funimation
Language                                 : English
Default                                  : No
Forced                                   : No

Menu
00:00:00.000                             : :Prologue
00:00:44.044                             : :Opening
00:02:14.009                             : :Part A
00:11:01.995                             : :Part B
00:22:34.103                             : :Ending
00:23:47.051                             : :Special
00:25:11.009                             : :Preview
beta
Anime DDL+NZB mirror
Current Time: 31/07/2021 03:11



About/FAQs