File Size226.1 MB (237,041,190 bytes)
DownloadAnonFiles | Go4Up | Jheberg | MultiUp | Sendspace | SolidFiles
ShareBeast: Part1, Part2
HashesCRC32: 77A4C859, MD5: 4A63255B86AE95D205B37CF0EE2EEB34, SHA1: 166A8BE792670EF59F51D60F69BAB9CBAD24A7FF, ED2K: FF972E514AE98B9EF4EC267D33AD3567
Screenshots
screenshotscreenshotscreenshotscreenshotscreenshot
Additional Info
General
Complete name                            : [KiteSeekers-Wasurenai] Pretty Rhythm Dear My Future - 34 [XviD 704x400] [77A4C859].avi
Format                                   : AVI
Format/Info                              : Audio Video Interleave
File size                                : 226 MiB
Duration                                 : 23mn 54s
Overall bit rate                         : 1 322 Kbps

Video
ID                                       : 0
Format                                   : MPEG-4 Visual
Format profile                           : Advanced Simple@L5
Format settings, BVOP                    : 2
Format settings, QPel                    : Yes
Format settings, GMC                     : No warppoints
Format settings, Matrix                  : Default (H.263)
Codec ID                                 : XVID
Codec ID/Hint                            : XviD
Duration                                 : 23mn 54s
Bit rate                                 : 1 188 Kbps
Width                                    : 704 pixels
Height                                   : 400 pixels
Display aspect ratio                     : 16:9
Frame rate                               : 23.976 fps
Color space                              : YUV
Chroma subsampling                       : 4:2:0
Bit depth                                : 8 bits
Scan type                                : Progressive
Compression mode                         : Lossy
Bits/(Pixel*Frame)                       : 0.176
Stream size                              : 203 MiB (90%)
Writing library                          : XviD 1.2.1 (UTC 2008-12-04)

Audio
ID                                       : 1
Format                                   : MPEG Audio
Format version                           : Version 1
Format profile                           : Layer 3
Mode                                     : Joint stereo
Mode extension                           : MS Stereo
Codec ID                                 : 55
Codec ID/Hint                            : MP3
Duration                                 : 23mn 54s
Bit rate mode                            : Constant
Bit rate                                 : 128 Kbps
Channel(s)                               : 2 channels
Sampling rate                            : 48.0 KHz
Compression mode                         : Lossy
Stream size                              : 21.9 MiB (10%)
Alignment                                : Aligned on interleaves
Interleave, duration                     : 167 ms (4.00 video frames)
Interleave, preload duration             : 216 ms
Title                                    : PRDMF 34 SD Audio [D2FAFAFC]
Writing library                          : LAME3.99r
Encoding settings                        : -m j -V 4 -q 2 -lowpass 17 -b 128
beta
Anime DDL+NZB mirror
Current Time: 25/07/2021 00:32



About/FAQs