[KiteSeekers-Wasurenai] Pretty Rhythm Dear My Future - 03 [XviD 704x400] [5EBB5CF5].avi


File Size217.6 MB (228,176,570 bytes)
DownloadAnonFiles | EmbedUpload | Jheberg | Mega | MultiUpload | Sendspace
ShareBeast: Part1, Part2
HashesCRC32: 5EBB5CF5, MD5: 24D4491A64363F3F4CC907CE418FF5E4, SHA1: 39CE380B6B224583CAF92A4AA27A92A06146E863, SHA256: 07A52E3CF83F04DD78FA1B8C14AACA7E7891593410F2AAB644146E4DE6369B3E, ED2K: 0B3589A356168DADB18D6D2F6746C96D
Screenshots
screenshotscreenshotscreenshotscreenshotscreenshot
Additional Info
General
Complete name                            : [KiteSeekers-Wasurenai] Pretty Rhythm Dear My Future - 03 [XviD 704x400] [5EBB5CF5].avi
Format                                   : AVI
Format/Info                              : Audio Video Interleave
File size                                : 218 MiB
Duration                                 : 23mn 55s
Overall bit rate                         : 1 272 Kbps

Video
ID                                       : 0
Format                                   : MPEG-4 Visual
Format profile                           : Advanced Simple@L5
Format settings, BVOP                    : 2
Format settings, QPel                    : Yes
Format settings, GMC                     : No warppoints
Format settings, Matrix                  : Default (H.263)
Codec ID                                 : XVID
Codec ID/Hint                            : XviD
Duration                                 : 23mn 55s
Bit rate                                 : 1 138 Kbps
Width                                    : 704 pixels
Height                                   : 400 pixels
Display aspect ratio                     : 16:9
Frame rate                               : 23.976 fps
Color space                              : YUV
Chroma subsampling                       : 4:2:0
Bit depth                                : 8 bits
Scan type                                : Progressive
Compression mode                         : Lossy
Bits/(Pixel*Frame)                       : 0.169
Stream size                              : 195 MiB (89%)
Writing library                          : XviD 1.2.1 (UTC 2008-12-04)

Audio
ID                                       : 1
Format                                   : MPEG Audio
Format version                           : Version 1
Format profile                           : Layer 3
Mode                                     : Joint stereo
Mode extension                           : MS Stereo
Codec ID                                 : 55
Codec ID/Hint                            : MP3
Duration                                 : 23mn 55s
Bit rate mode                            : Constant
Bit rate                                 : 128 Kbps
Channel count                            : 2 channels
Sampling rate                            : 48.0 KHz
Compression mode                         : Lossy
Stream size                              : 21.9 MiB (10%)
Alignment                                : Aligned on interleaves
Interleave, duration                     : 167 ms (4.00 video frames)
Interleave, preload duration             : 216 ms
Title                                    : PRDMF 03 SD Audio [66BCC9A5]
Writing library                          : LAME3.99r
Encoding settings                        : -m j -V 4 -q 2 -lowpass 17 -b 128
beta
Anime DDL+NZB mirror
Current Time: 03/08/2021 17:03



About/FAQs