File Size226.8 MB (237,794,810 bytes)
DownloadGo4Up | Jheberg | MultiUp
  • ClickNupload
  • Fichier
  • Filerio
  • Free
  • Fufox
  • HugeFiles
  • Mightyupload
  • ToutBox
  • Turbobit
  • UpToBox
  • Uplea
  • UploadBaz
  • Uploadable
  • Uploaded
  • Uppit
  • Userscloud
| OpenLoad | Sendspace | SolidFiles | UsersCloud
Encrypted DownloadDirect
Password:
HashesCRC32: 02C44FB3, MD5: 009609ACC2A661C3A743E67F7D9F22B1, SHA1: 7CA985D7CD6D85406AC9682A6EAF982B05D8A343, SHA256: 953E5365E975D6D4FBD4F8EF8DABF23821022A9F713C736615D1A77DC60D425D, ED2K: BF67AE2A95AEA3B17BE87C521EA62F6C
Screenshots
screenshotscreenshotscreenshotscreenshotscreenshot
Additional Info
General
Complete name                            : [KiteSeekers-Licca] Idol Densetsu Eriko - 30 [BD XviD MP3 640x480] [02C44FB3].avi
Format                                   : AVI
Format/Info                              : Audio Video Interleave
File size                                : 227 MiB
Duration                                 : 22 min 28 s
Overall bit rate                         : 1 411 kb/s
Writing library                          : VirtualDub build 35491/release

Video
ID                                       : 0
Format                                   : MPEG-4 Visual
Format profile                           : Advanced Simple@L5
Format settings, BVOP                    : 2
Format settings, QPel                    : Yes
Format settings, GMC                     : No warppoints
Format settings, Matrix                  : Default (H.263)
Codec ID                                 : XVID
Codec ID/Hint                            : XviD
Duration                                 : 22 min 28 s
Bit rate                                 : 1 209 kb/s
Width                                    : 640 pixels
Height                                   : 480 pixels
Display aspect ratio                     : 4:3
Frame rate                               : 23.976 (24000/1001) FPS
Color space                              : YUV
Chroma subsampling                       : 4:2:0
Bit depth                                : 8 bits
Scan type                                : Progressive
Compression mode                         : Lossy
Bits/(Pixel*Frame)                       : 0.164
Stream size                              : 194 MiB (86%)
Writing library                          : XviD 64

Audio
ID                                       : 1
Format                                   : MPEG Audio
Format version                           : Version 1
Format profile                           : Layer 3
Mode                                     : Joint stereo
Mode extension                           : MS Stereo
Codec ID                                 : 55
Codec ID/Hint                            : MP3
Duration                                 : 22 min 28 s
Bit rate mode                            : Constant
Bit rate                                 : 192 kb/s
Channel(s)                               : 2 channels
Sampling rate                            : 48.0 kHz
Compression mode                         : Lossy
Stream size                              : 30.9 MiB (14%)
Alignment                                : Split accross interleaves
Interleave, duration                     : 42  ms (1.00 video frame)
Interleave, preload duration             : 500  ms
beta
Anime DDL+NZB mirror
Current Time: 20/08/2019 15:01



About/FAQs