[KiteSeekers-Licca] Idol Densetsu Eriko - 22 [BD XviD MP3 640x480] [E10C6C4E].avi


File Size226.8 MB (237,765,082 bytes)
DownloadAnonFiles | EmbedUpload | Jheberg | Mega | MirrorStack | MultiUpload | Sendspace
ShareBeast: Part1, Part2
HashesCRC32: E10C6C4E, MD5: 568189F929623800AAF1580BA6E98B30, SHA1: C67DF3ACF3629D17D9CD9DE1100B42632FB4AC85, SHA256: F5BA0D40533E1C93B962807BAA012FAAC41F4A09C388972617B1E6FA9B713B5F, ED2K: EE465817A290D78E8350AA4A81CF9A0B
Screenshots
screenshotscreenshotscreenshotscreenshotscreenshot
Additional Info
General
Complete name                            : [KiteSeekers-Licca] Idol Densetsu Eriko - 22 [BD XviD MP3 640x480] [E10C6C4E].avi
Format                                   : AVI
Format/Info                              : Audio Video Interleave
File size                                : 227 MiB
Duration                                 : 22mn 28s
Overall bit rate                         : 1 411 Kbps
Writing library                          : VirtualDub build 35491/release

Video
ID                                       : 0
Format                                   : MPEG-4 Visual
Format profile                           : Advanced Simple@L5
Format settings, BVOP                    : 2
Format settings, QPel                    : Yes
Format settings, GMC                     : No warppoints
Format settings, Matrix                  : Default (H.263)
Codec ID                                 : XVID
Codec ID/Hint                            : XviD
Duration                                 : 22mn 28s
Bit rate                                 : 1 209 Kbps
Width                                    : 640 pixels
Height                                   : 480 pixels
Display aspect ratio                     : 4:3
Frame rate                               : 23.976 fps
Color space                              : YUV
Chroma subsampling                       : 4:2:0
Bit depth                                : 8 bits
Scan type                                : Progressive
Compression mode                         : Lossy
Bits/(Pixel*Frame)                       : 0.164
Stream size                              : 194 MiB (86%)
Writing library                          : XviD 64

Audio
ID                                       : 1
Format                                   : MPEG Audio
Format version                           : Version 1
Format profile                           : Layer 3
Mode                                     : Joint stereo
Mode extension                           : MS Stereo
Codec ID                                 : 55
Codec ID/Hint                            : MP3
Duration                                 : 22mn 28s
Bit rate mode                            : Constant
Bit rate                                 : 192 Kbps
Channel count                            : 2 channels
Sampling rate                            : 48.0 KHz
Compression mode                         : Lossy
Stream size                              : 30.9 MiB (14%)
Alignment                                : Split accross interleaves
Interleave, duration                     : 42 ms (1.00 video frame)
Interleave, preload duration             : 500 ms
beta
Anime DDL+NZB mirror
Current Time: 17/07/2019 11:28



About/FAQs