[KiteSeekers-Licca] Idol Densetsu Eriko - 18 [BD XviD MP3 640x480] [E385D8B5].avi


File Size226.8 MB (237,830,390 bytes)
DownloadAnonFiles | EmbedUpload | Jheberg | MirrorStack | MultiUpload | Sendspace
ShareBeast: Part1, Part2
HashesCRC32: E385D8B5, MD5: 82BFBF928EFF80E85114F329CDCB83BD, SHA1: B139193E5F861CF3F0E6052A515D694694CABE65, SHA256: 1B668FAF5650ED00FF6B91DED010BDEF328CD6E59B16F1AE839D7C40DDE8EBE6, ED2K: 1812D3B3E4BA97A3318845965587174A
Screenshots
screenshotscreenshotscreenshotscreenshotscreenshot
Additional Info
General
Complete name                            : [KiteSeekers-Licca] Idol Densetsu Eriko - 18 [BD XviD MP3 640x480] [E385D8B5].avi
Format                                   : AVI
Format/Info                              : Audio Video Interleave
File size                                : 227 MiB
Duration                                 : 22mn 28s
Overall bit rate                         : 1 411 Kbps
Writing library                          : VirtualDub build 33848/release

Video
ID                                       : 0
Format                                   : MPEG-4 Visual
Format profile                           : Advanced Simple@L5
Format settings, BVOP                    : 2
Format settings, QPel                    : Yes
Format settings, GMC                     : No warppoints
Format settings, Matrix                  : Default (H.263)
Codec ID                                 : XVID
Codec ID/Hint                            : XviD
Duration                                 : 22mn 28s
Bit rate                                 : 1 210 Kbps
Width                                    : 640 pixels
Height                                   : 480 pixels
Display aspect ratio                     : 4:3
Frame rate                               : 23.976 fps
Color space                              : YUV
Chroma subsampling                       : 4:2:0
Bit depth                                : 8 bits
Scan type                                : Progressive
Compression mode                         : Lossy
Bits/(Pixel*Frame)                       : 0.164
Stream size                              : 194 MiB (86%)
Writing library                          : XviD 64

Audio
ID                                       : 1
Format                                   : MPEG Audio
Format version                           : Version 1
Format profile                           : Layer 3
Mode                                     : Joint stereo
Mode extension                           : MS Stereo
Codec ID                                 : 55
Codec ID/Hint                            : MP3
Duration                                 : 22mn 28s
Bit rate mode                            : Constant
Bit rate                                 : 192 Kbps
Channel count                            : 2 channels
Sampling rate                            : 48.0 KHz
Compression mode                         : Lossy
Stream size                              : 30.9 MiB (14%)
Alignment                                : Split accross interleaves
Interleave, duration                     : 42 ms (1.00 video frame)
Interleave, preload duration             : 500 ms
beta
Anime DDL+NZB mirror
Current Time: 22/10/2019 12:51



About/FAQs