[KiteSeekers-Licca] Idol Densetsu Eriko - 03 [DVD XviD 640x480] [EA6356FC].avi


File Size198.0 MB (207,667,860 bytes)
DownloadASfile | ChauThanh | EmbedUpload | FileFactory | NetLoad | PutLocker | Sendspace | UpToBox | Ziddu | Zippyshare
HashesCRC32: EA6356FC, MD5: FE2426D65AD94931CC667DE5B73C9697, SHA1: 95B3D7343D2B5B10445DB3803B23387507FC7B2C, SHA256: AC750AB6115D6725428A2693E6EB006E89C94EA8175B8E3C704F643A554F5973, ED2K: CA05664C37F3A20D529CB27E2B127B48
Screenshots
screenshotscreenshotscreenshotscreenshotscreenshot
Additional Info
General
Complete name                            : [KiteSeekers-Licca] Idol Densetsu Eriko - 03 [DVD XviD 640x480] [EA6356FC].avi
Format                                   : AVI
Format/Info                              : Audio Video Interleave
File size                                : 198 MiB
Duration                                 : 22mn 27s
Overall bit rate                         : 1 233 Kbps
Writing library                          : VirtualDub build 33848/release

Video
ID                                       : 0
Format                                   : MPEG-4 Visual
Format profile                           : Advanced Simple@L5
Format settings, BVOP                    : 2
Format settings, QPel                    : Yes
Format settings, GMC                     : No warppoints
Format settings, Matrix                  : Default (H.263)
Codec ID                                 : XVID
Codec ID/Hint                            : XviD
Duration                                 : 22mn 27s
Bit rate                                 : 1 096 Kbps
Width                                    : 640 pixels
Height                                   : 480 pixels
Display aspect ratio                     : 4:3
Frame rate                               : 23.976 fps
Color space                              : YUV
Chroma subsampling                       : 4:2:0
Bit depth                                : 8 bits
Scan type                                : Progressive
Compression mode                         : Lossy
Bits/(Pixel*Frame)                       : 0.149
Stream size                              : 176 MiB (89%)
Writing library                          : XviD 64

Audio
ID                                       : 1
Format                                   : MPEG Audio
Format version                           : Version 1
Format profile                           : Layer 3
Mode                                     : Joint stereo
Mode extension                           : MS Stereo
Codec ID                                 : 55
Codec ID/Hint                            : MP3
Duration                                 : 22mn 27s
Bit rate mode                            : Constant
Bit rate                                 : 128 Kbps
Channel(s)                               : 2 channels
Sampling rate                            : 48.0 KHz
Compression mode                         : Lossy
Stream size                              : 20.6 MiB (10%)
Alignment                                : Split accross interleaves
Interleave, duration                     : 42 ms (1.00 video frame)
Interleave, preload duration             : 500 ms
beta
Anime DDL+NZB mirror
Current Time: 24/10/2020 07:01



About/FAQs