[KiteSeekers-Licca] Idol Densetsu Eriko - 03 [DVD H264 640x480] [ED7171F8].mp4


File Size197.7 MB (207,294,661 bytes)
DownloadChauThanh | EmbedUpload | FileFactory | NetLoad | Sendspace | UpToBox | Ziddu | Zippyshare
HashesCRC32: ED7171F8, MD5: F42C30748957E34BB431D185662454C4, SHA1: 21DA0F8B1CDEA8C62DB6C87E02E3264C7A093B28, SHA256: D676DC09676E54A0F471D7B6341699D1D81DA886296E944F69A8AC921C41B76C, ED2K: 7D5EC0116F34A646744FA841626F41C4
Screenshots
screenshotscreenshotscreenshotscreenshotscreenshot
Additional Info
General
Complete name                            : [KiteSeekers-Licca] Idol Densetsu Eriko - 03 [DVD H264 640x480] [ED7171F8].mp4
Format                                   : MPEG-4
Format profile                           : Base Media
Codec ID                                 : isom
File size                                : 198 MiB
Duration                                 : 22mn 27s
Overall bit rate mode                    : Variable
Overall bit rate                         : 1 231 Kbps
Encoded date                             : UTC 2012-11-18 04:29:49
Tagged date                              : UTC 2012-11-18 04:29:49
Writing application                      : My MP4Box GUI 0.5.5.4 <http://my-mp4box-gui.zymichost.com>

Video
ID                                       : 1
Format                                   : AVC
Format/Info                              : Advanced Video Codec
Format profile                           : High@L3.0
Format settings, CABAC                   : Yes
Format settings, ReFrames                : 5 frames
Codec ID                                 : avc1
Codec ID/Info                            : Advanced Video Coding
Duration                                 : 22mn 27s
Bit rate                                 : 1 000 Kbps
Maximum bit rate                         : 3 058 Kbps
Width                                    : 640 pixels
Height                                   : 480 pixels
Display aspect ratio                     : 4:3
Frame rate mode                          : Constant
Frame rate                               : 23.976 fps
Color space                              : YUV
Chroma subsampling                       : 4:2:0
Bit depth                                : 8 bits
Scan type                                : Progressive
Bits/(Pixel*Frame)                       : 0.136
Stream size                              : 161 MiB (81%)
Title                                    : Idol Densetsu Eriko Episode 3 - A Requiem for Daddy
Writing library                          : x264 core 125 r2200 999b753
Encoding settings                        : cabac=1 / ref=5 / deblock=1:1:2 / analyse=0x3:0x133 / me=umh / subme=7 / psy=1 / psy_rd=0.40:0.00 / mixed_ref=1 / me_range=16 / chroma_me=1 / trellis=1 / 8x8dct=1 / cqm=0 / deadzone=21,11 / fast_pskip=0 / chroma_qp_offset=-2 / threads=12 / lookahead_threads=2 / sliced_threads=0 / nr=0 / decimate=0 / interlaced=0 / bluray_compat=0 / constrained_intra=0 / bframes=5 / b_pyramid=2 / b_adapt=1 / b_bias=0 / direct=1 / weightb=1 / open_gop=0 / weightp=2 / keyint=240 / keyint_min=23 / scenecut=40 / intra_refresh=0 / rc_lookahead=40 / rc=2pass / mbtree=1 / bitrate=1000 / ratetol=1.0 / qcomp=0.60 / qpmin=0 / qpmax=69 / qpstep=4 / cplxblur=20.0 / qblur=0.5 / ip_ratio=1.40 / aq=1:0.60
Encoded date                             : UTC 2012-11-19 04:22:32
Tagged date                              : UTC 2012-11-18 04:29:54

Audio
ID                                       : 2
Format                                   : AAC
Format/Info                              : Advanced Audio Codec
Format profile                           : LC
Codec ID                                 : 40
Duration                                 : 22mn 27s
Bit rate mode                            : Variable
Bit rate                                 : 168 Kbps
Maximum bit rate                         : 185 Kbps
Channel(s)                               : 2 channels
Channel positions                        : Front: L R
Sampling rate                            : 48.0 KHz
Compression mode                         : Lossy
Stream size                              : 27.0 MiB (14%)
Language                                 : Japanese
Encoded date                             : UTC 2012-11-18 04:29:50
Tagged date                              : UTC 2012-11-18 04:29:54
beta
Anime DDL+NZB mirror
Current Time: 19/10/2020 21:05



About/FAQs