[KiteSeekers-Licca] Idol Densetsu Eriko - 03 [BD XviD MP3 640x480] [BFEE1D63].avi


File Size226.8 MB (237,784,638 bytes)
DownloadAnonFiles | EmbedUpload | FileWinds | Jheberg | MirrorStack | MultiUpload | Sendspace
ShareBeast: Part1, Part2
HashesCRC32: BFEE1D63, MD5: 8A7C991832B0ED591A8112A26F57A941, SHA1: F4D38B7E121D0902CD3BA67640A2639F5CE345CC, SHA256: 526950F6858E20C21785E51D1E09CE2220F826767404B5ABAA8375ACDE5AF4D5, ED2K: 1AD39DE9799B0E7E26F8173112830C86
Screenshots
screenshotscreenshotscreenshotscreenshotscreenshot
Additional Info
General
Complete name                            : [KiteSeekers-Licca] Idol Densetsu Eriko - 03 [BD XviD MP3 640x480] [BFEE1D63].avi
Format                                   : AVI
Format/Info                              : Audio Video Interleave
File size                                : 227 MiB
Duration                                 : 22mn 28s
Overall bit rate                         : 1 411 Kbps
Writing library                          : VirtualDub build 33848/release

Video
ID                                       : 0
Format                                   : MPEG-4 Visual
Format profile                           : Advanced Simple@L5
Format settings, BVOP                    : 2
Format settings, QPel                    : Yes
Format settings, GMC                     : No warppoints
Format settings, Matrix                  : Default (H.263)
Codec ID                                 : XVID
Codec ID/Hint                            : XviD
Duration                                 : 22mn 28s
Bit rate                                 : 1 209 Kbps
Width                                    : 640 pixels
Height                                   : 480 pixels
Display aspect ratio                     : 4:3
Frame rate                               : 23.976 fps
Color space                              : YUV
Chroma subsampling                       : 4:2:0
Bit depth                                : 8 bits
Scan type                                : Progressive
Compression mode                         : Lossy
Bits/(Pixel*Frame)                       : 0.164
Stream size                              : 194 MiB (86%)
Writing library                          : XviD 64

Audio
ID                                       : 1
Format                                   : MPEG Audio
Format version                           : Version 1
Format profile                           : Layer 3
Mode                                     : Joint stereo
Mode extension                           : MS Stereo
Codec ID                                 : 55
Codec ID/Hint                            : MP3
Duration                                 : 22mn 28s
Bit rate mode                            : Constant
Bit rate                                 : 192 Kbps
Channel(s)                               : 2 channels
Sampling rate                            : 48.0 KHz
Compression mode                         : Lossy
Stream size                              : 30.9 MiB (14%)
Alignment                                : Split accross interleaves
Interleave, duration                     : 42 ms (1.00 video frame)
Interleave, preload duration             : 500 ms
beta
Anime DDL+NZB mirror
Current Time: 20/07/2019 12:27



About/FAQs