[Kawaiika-Raws] Kyokou Suiri 03 [BDRip 1920x1080 HEVC FLAC].mkv


File Size1.102 GB (1,182,901,620 bytes)
DownloadAnonFiles | ClickNUpload | DropAPK
Free: Part1, Part2
MultiUp: Part1
  • BdUpload
  • DownAce
  • Fichier
  • FileCloud
  • Filerio
  • FilesCdn
  • IndiShare
  • Kbagi
  • Turbobit
  • UpToBox
  • Uppit
, Part2
  • BdUpload
  • DownAce
  • Fichier
  • FileCloud
  • Filerio
  • FilesCdn
  • IndiShare
  • Kbagi
  • Turbobit
  • UpToBox
  • Uppit
, Part3
  • BdUpload
  • DownAce
  • Fichier
  • FileCloud
  • Filerio
  • FilesCdn
  • IndiShare
  • Kbagi
  • Turbobit
  • UpToBox
  • Uppit

Sendspace: Part1, Part2, Part3, Part4
SolidFiles: Part1, Part2, Part3
ZippyShare: Part1, Part2, Part3
HashesCRC32: 07FC4942, MD5: 13C163643938B75071FA87B6476D11B5, SHA1: 0D3BAB0DFEC861B53650EAB3AF7A1BFE85B8457E, SHA256: A0787E62E2B28C73DEFDF4B78C6BC7F6668567FD2634D1AE8465D87DBBA565C1, ED2K: B19EBA773F3870BC7F3FE1D73015CD31
Screenshots
screenshotscreenshotscreenshotscreenshotscreenshot
Additional Info
General
Unique ID                                : 177506271122293579071668058673453202033 (0x858A76DB84DE9C2742088DFA75E7FA71)
Complete name                            : [Kawaiika-Raws] Kyokou Suiri 03 [BDRip 1920x1080 HEVC FLAC].mkv
Format                                   : Matroska
Format version                           : Version 4
File size                                : 1.10 GiB
Duration                                 : 24 min 2 s
Overall bit rate mode                    : Variable
Overall bit rate                         : 6 562 kb/s
Movie name                               : E3 «The Rumors of the Steel Lady»
Encoded date                             : UTC 2020-07-17 11:20:30
Writing application                      : mkvmerge v47.0.0 ('Black Flag') 64-bit
Writing library                          : libebml v1.3.10 + libmatroska v1.5.2

Video
ID                                       : 1
Format                                   : HEVC
Format/Info                              : High Efficiency Video Coding
Format profile                           : Main 10@L4@Main
Codec ID                                 : V_MPEGH/ISO/HEVC
Duration                                 : 24 min 2 s
Bit rate                                 : 5 903 kb/s
Width                                    : 1 920 pixels
Height                                   : 1 080 pixels
Display aspect ratio                     : 16:9
Frame rate mode                          : Constant
Frame rate                               : 23.976 (24000/1001) FPS
Color space                              : YUV
Chroma subsampling                       : 4:2:0
Bit depth                                : 10 bits
Bits/(Pixel*Frame)                       : 0.119
Stream size                              : 1 015 MiB (90%)
Title                                    : BDRip by DeadNews
Writing library                          : x265 3.4+2-g826fe63b9:[Linux][GCC 10.1.0][64 bit] 10bit
Encoding settings                        : cpuid=1049583 / frame-threads=1 / wpp / no-pmode / no-pme / no-psnr / no-ssim / log-level=2 / input-csp=1 / input-res=1920x1080 / interlace=0 / total-frames=34574 / level-idc=0 / high-tier=1 / uhd-bd=0 / ref=5 / no-allow-non-conformance / no-repeat-headers / annexb / no-aud / no-hrd / info / hash=0 / no-temporal-layers / open-gop / min-keyint=23 / keyint=250 / gop-lookahead=50 / bframes=16 / b-adapt=2 / b-pyramid / bframe-bias=0 / rc-lookahead=250 / lookahead-slices=1 / scenecut=40 / hist-scenecut=0 / radl=0 / no-splice / no-intra-refresh / ctu=64 / min-cu-size=8 / rect / amp / max-tu-size=32 / tu-inter-depth=2 / tu-intra-depth=2 / limit-tu=0 / rdoq-level=2 / dynamic-rd=0.00 / no-ssim-rd / signhide / no-tskip / nr-intra=0 / nr-inter=0 / no-constrained-intra / strong-intra-smoothing / max-merge=5 / limit-refs=2 / no-limit-modes / me=3 / subme=7 / merange=48 / temporal-mvp / no-frame-dup / no-hme / weightp / weightb / no-analyze-src-pics / deblock=1:-1 / no-sao / no-sao-non-deblock / rd=4 / selective-sao=0 / no-early-skip / no-rskip / no-fast-intra / no-tskip-fast / no-cu-lossless / b-intra / no-splitrd-skip / rdpenalty=0 / psy-rd=2.00 / psy-rdoq=2.00 / no-rd-refine / no-lossless / cbqpoffs=-2 / crqpoffs=-2 / rc=crf / crf=15.0 / qcomp=0.72 / qpstep=4 / stats-write=0 / stats-read=0 / ipratio=1.40 / pbratio=1.30 / aq-mode=3 / aq-strength=0.85 / no-cutree / zone-count=4 / zones: / start-frame=1511 / end-frame=3669 / bitrate-factor=0.990000 / zones: / start-frame=2046 / end-frame=2110 / bitrate-factor=0.900000 / zones: / start-frame=32033 / end-frame=32291 / bitrate-factor=0.890000 / zones: / start-frame=5408 / end-frame=5587 / bitrate-factor=0.550000 / no-strict-cbr / qg-size=32 / no-rc-grain / qpmax=69 / qpmin=0 / no-const-vbv / sar=1 / overscan=0 / videoformat=5 / range=0 / colorprim=1 / transfer=1 / colormatrix=1 / chromaloc=0 / display-window=0 / cll=0,0 / min-luma=0 / max-luma=1023 / log2-max-poc-lsb=8 / vui-timing-info / vui-hrd-info / slices=1 / no-opt-qp-pps / no-opt-ref-list-length-pps / no-multi-pass-opt-rps / scenecut-bias=0.05 / hist-threshold=0.01 / no-opt-cu-delta-qp / no-aq-motion / no-hdr10 / no-hdr10-opt / no-dhdr10-opt / no-idr-recovery-sei / analysis-reuse-level=0 / analysis-save-reuse-level=0 / analysis-load-reuse-level=0 / scale-factor=0 / refine-intra=0 / refine-inter=0 / refine-mv=3 / refine-ctu-distortion=0 / no-limit-sao / ctu-info=0 / no-lowpass-dct / refine-analysis-type=0 / copy-pic=1 / max-ausize-factor=1.0 / no-dynamic-refine / no-single-sei / no-hevc-aq / no-svt / no-field / qp-adaptation-range=1.00 / no-scenecut-aware-qpconformance-window-offsets / right=0 / bottom=0 / decoder-max-rate=0
Language                                 : Japanese
Default                                  : Yes
Forced                                   : No
Color range                              : Limited
Color primaries                          : BT.709
Transfer characteristics                 : BT.709
Matrix coefficients                      : BT.709

Audio
ID                                       : 2
Format                                   : FLAC
Format/Info                              : Free Lossless Audio Codec
Codec ID                                 : A_FLAC
Duration                                 : 24 min 2 s
Bit rate mode                            : Variable
Bit rate                                 : 657 kb/s
Channel(s)                               : 2 channels
Channel layout                           : L R
Sampling rate                            : 48.0 kHz
Frame rate                               : 10.417 FPS (4608 SPF)
Bit depth                                : 16 bits
Compression mode                         : Lossless
Stream size                              : 113 MiB (10%)
Title                                    : LPCM->FLAC16
Writing library                          : Lavf58.29.100
Language                                 : Japanese
Default                                  : Yes
Forced                                   : No

Menu
00:00:00.000                             : en:Avant
00:01:03.021                             : en:OP
00:02:33.027                             : en:Part A
00:08:40.019                             : en:Part B
00:22:16.042                             : en:ED
00:23:46.007                             : en:Next

Other Files in this Torrent
[Kawaiika-Raws] Kyokou Suiri 03 [BDRip 1920x1080 HEVC FLAC].mkv
beta
Anime DDL+NZB mirror
Current Time: 03/08/2021 17:07



About/FAQs