[Kaleido-subs] PERSONA 5 THE ROYAL Teaser CM (WEB 720p) [4A5787F5].mkv


File Size8.566 MB (8,982,325 bytes)
DownloadClickNUpload | Go4Up | Jheberg | MultiUp
  • BdUpload
  • DownAce
  • Fichier
  • FileCloud
  • Filerio
  • FilesCdn
  • IndiShare
  • Kbagi
  • Solidfiles
  • Turbobit
  • UpToBox
  • Uppit
| OpenLoad | Sendspace | ZippyShare
HashesCRC32: 4A5787F5, MD5: 08020D28892A9AFE520139858D210E4B, SHA1: D6459696C6D50E6499D93A42C26F1FB09E1FC55D, SHA256: E62C6CC849332B7FF1213D72EAEC85649BCE74797D9737C35C49A6A392104CCF, ED2K: 1909FFD8233338E122BC75954C948243
Screenshots
screenshot
SubtitlesAll Attachments | eng [ASS]
Additional Info
General
Unique ID                                : 247723592962656527408630672614099116303 (0xBA5DD41CA03F1F42E6F04B3D1FB1E10F)
Complete name                            : [Kaleido-subs] PERSONA 5 THE ROYAL Teaser CM (WEB 720p) [4A5787F5].mkv
Format                                   : Matroska
Format version                           : Version 4
File size                                : 8.57 MiB
Duration                                 : 44 s 44 ms
Overall bit rate                         : 1 632 kb/s
Encoded date                             : UTC 2019-03-23 18:58:29
Writing application                      : mkvmerge v29.0.0 ('Like It Or Not') 64-bit
Writing library                          : libebml v1.3.6 + libmatroska v1.4.9
Attachments                              : GANDHISANS-BOLD.OTF

Video
ID                                       : 1
Format                                   : AVC
Format/Info                              : Advanced Video Codec
Format profile                           : High 10@L5
Format settings                          : CABAC / 16 Ref Frames
Format settings, CABAC                   : Yes
Format settings, ReFrames                : 16 frames
Codec ID                                 : V_MPEG4/ISO/AVC
Duration                                 : 44 s 44 ms
Bit rate                                 : 1 486 kb/s
Width                                    : 1 280 pixels
Height                                   : 720 pixels
Display aspect ratio                     : 16:9
Frame rate mode                          : Constant
Frame rate                               : 29.970 (30000/1001) FPS
Color space                              : YUV
Chroma subsampling                       : 4:2:0
Bit depth                                : 10 bits
Scan type                                : Progressive
Bits/(Pixel*Frame)                       : 0.054
Stream size                              : 7.80 MiB (91%)
Writing library                          : x264 core 133 r2334 a3ac64b
Encoding settings                        : cabac=1 / ref=16 / deblock=1:0:0 / analyse=0x3:0x133 / me=umh / subme=10 / psy=1 / psy_rd=0.72:0.00 / mixed_ref=1 / me_range=24 / chroma_me=1 / trellis=2 / 8x8dct=1 / cqm=0 / deadzone=21,11 / fast_pskip=0 / chroma_qp_offset=-2 / threads=12 / lookahead_threads=3 / sliced_threads=0 / nr=0 / decimate=0 / interlaced=0 / bluray_compat=0 / constrained_intra=0 / bframes=16 / b_pyramid=2 / b_adapt=2 / b_bias=0 / direct=3 / weightb=1 / open_gop=0 / weightp=2 / keyint=480 / keyint_min=24 / scenecut=40 / intra_refresh=0 / rc_lookahead=60 / rc=crf / mbtree=1 / crf=20.0 / qcomp=0.70 / qpmin=0 / qpmax=81 / qpstep=4 / ip_ratio=1.40 / aq=2:0.75
Language                                 : English
Default                                  : Yes
Forced                                   : No

Audio
ID                                       : 2
Format                                   : Opus
Codec ID                                 : A_OPUS
Duration                                 : 44 s 33 ms
Bit rate                                 : 121 kb/s
Channel(s)                               : 2 channels
Channel layout                           : L R
Sampling rate                            : 48.0 kHz
Frame rate                               : 50.008 FPS (960 SPF)
Compression mode                         : Lossy
Stream size                              : 653 KiB (7%)
Language                                 : Japanese
Default                                  : Yes
Forced                                   : No

Text
ID                                       : 3
Format                                   : ASS
Codec ID                                 : S_TEXT/ASS
Codec ID/Info                            : Advanced Sub Station Alpha
Duration                                 : 25 s 660 ms
Bit rate                                 : 255 b/s
Count of elements                        : 9
Compression mode                         : Lossless
Stream size                              : 821 Bytes (0%)
Language                                 : English
Default                                  : Yes
Forced                                   : No
beta
Anime DDL+NZB mirror
Current Time: 09/12/2019 02:50



About/FAQs