File Size751.9 MB (788,426,286 bytes)
DownloadClickNUpload | Jheberg
  • 1Fichier
  • 2Giga
  • BDupload
  • ClicknUpload
  • Filerio
  • FilesCDN
  • FilesUpload
  • Free
  • MegaUp
  • Nitroflare
  • Openload
  • ShareOnline
  • Turbobit
  • Tusfiles
  • Uppit
  • Uptobox
  • ddlTo
| OpenLoad
MultiUp: Part1
  • BdUpload
  • DownAce
  • Fichier
  • FileCloud
  • Filerio
  • FilesCdn
  • IndiShare
  • Kbagi
  • Turbobit
  • UpToBox
  • Uppit
, Part2
  • BdUpload
  • DownAce
  • Fichier
  • FileCloud
  • Filerio
  • FilesCdn
  • IndiShare
  • Kbagi
  • Turbobit
  • UpToBox
  • Uppit

Sendspace: Part1, Part2, Part3
SolidFiles: Part1, Part2
ZippyShare: Part1, Part2
HashesCRC32: BECD9361, MD5: 316F80751A32F933D5D44ADB57514124, SHA1: 46C536DB7B80444043803A366399A315523AC9F0, SHA256: F5729FE537DE605DEA9EAD67FC6FFE0832EAA396F2332BDD4762E515D27B9EF6, ED2K: 7E40FB3C400710BCAD09BC782BFE86C7
Screenshots
screenshotscreenshotscreenshotscreenshotscreenshot
Additional Info
General
Complete name                            : [KaiDubs] Dragon Ball Super - 115 [AS-DL] [1080p].mp4
Format                                   : MPEG-4
Format profile                           : Base Media
Codec ID                                 : isom (isom/iso2/avc1/mp41)
File size                                : 752 MiB
Duration                                 : 21 min 0 s
Overall bit rate mode                    : Variable
Overall bit rate                         : 5 004 kb/s
Movie name                               : Ripped by KaiDubs
Writing application                      : Lavf58.26.101

Video
ID                                       : 1
Format                                   : AVC
Format/Info                              : Advanced Video Codec
Format profile                           : High@L4
Format settings                          : CABAC / 4 Ref Frames
Format settings, CABAC                   : Yes
Format settings, ReFrames                : 4 frames
Format settings, GOP                     : M=3, N=60
Codec ID                                 : avc1
Codec ID/Info                            : Advanced Video Coding
Duration                                 : 21 min 0 s
Bit rate                                 : 4 870 kb/s
Width                                    : 1 920 pixels
Height                                   : 1 080 pixels
Display aspect ratio                     : 16:9
Frame rate mode                          : Variable
Frame rate                               : 29.970 (29970/1000) FPS
Minimum frame rate                       : 29.960 FPS
Maximum frame rate                       : 29.970 FPS
Color space                              : YUV
Chroma subsampling                       : 4:2:0
Bit depth                                : 8 bits
Scan type                                : Progressive
Bits/(Pixel*Frame)                       : 0.078
Stream size                              : 732 MiB (97%)
Title                                    : Adult Swim
Language                                 : English
Codec configuration box                  : avcC

Audio
ID                                       : 2
Format                                   : AAC LC
Format/Info                              : Advanced Audio Codec Low Complexity
Codec ID                                 : mp4a-40-2
Duration                                 : 21 min 0 s
Bit rate mode                            : Constant
Bit rate                                 : 126 kb/s
Channel(s)                               : 2 channels
Channel layout                           : L R
Sampling rate                            : 44.1 kHz
Frame rate                               : 43.066 FPS (1024 SPF)
Compression mode                         : Lossy
Stream size                              : 18.9 MiB (3%)
Title                                    : 2.0 AAC
Language                                 : English
Default                                  : Yes
Alternate group                          : 1

Text
ID                                       : 3
Format                                   : Timed Text
Muxing mode                              : sbtl
Codec ID                                 : tx3g
Duration                                 : 20 min 51 s
Bit rate mode                            : Variable
Bit rate                                 : 93 b/s
Stream size                              : 14.2 KiB (0%)
Title                                    : Closed Captions
Language                                 : English
Default                                  : Yes
Forced                                   : No
Alternate group                          : 3
beta
Anime DDL+NZB mirror
Current Time: 08/04/2020 02:56



About/FAQs