File Size348.8 MB (365,792,272 bytes)
DownloadClickNUpload | DropAPK | Jheberg
  • 1Fichier
  • 2Giga
  • BDupload
  • ClicknUpload
  • Filerio
  • FilesCDN
  • FilesUpload
  • Free
  • MegaUp
  • Nitroflare
  • Openload
  • ShareOnline
  • Turbobit
  • Tusfiles
  • Uppit
  • Uptobox
  • ddlTo
| MultiUp
  • BdUpload
  • DownAce
  • Fichier
  • FileCloud
  • Filerio
  • FilesCdn
  • IndiShare
  • Kbagi
  • Turbobit
  • UpToBox
  • Uppit
| SolidFiles | ZippyShare
Sendspace: Part1, Part2
HashesCRC32: 0A238A70, MD5: 92D8E12F401C50FB0F82CABB49A9EFE7, SHA1: 602731177EE9774F88D5808B25A9376E44C5189C, SHA256: 390D6615181C1586E21D4B63290F5D9A4260877D8C0733F52D9807218D8FB386, ED2K: EF28A7F734D95D12856A6CD1B70BD79D
Screenshots
screenshotscreenshotscreenshotscreenshotscreenshot
SubtitlesAll Attachments | English [eng, ASS], French [fre, ASS], German [ger, ASS], Italian [ita, ASS], Spanish[ESP] [spa, ASS], Spanish[LAT] [spa, ASS], Brazilian Portuguese [por, ASS], Russian [rus, ASS], Arabic [ara, ASS]
Additional Info
General
Unique ID                                : 295615888886110801317154134416158698241 (0xDE658C9B4544E60BE625B2ED4A412B01)
Complete name                            : [Judas] Mairimashita! Iruma-kun - S01E02.mkv
Format                                   : Matroska
Format version                           : Version 4
File size                                : 349 MiB
Duration                                 : 24 min 30 s
Overall bit rate                         : 1 991 kb/s
Encoded date                             : UTC 2020-03-07 14:09:44
Writing application                      : mkvmerge v43.0.0 ('The Quartermaster') 64-bit
Writing library                          : libebml v1.3.10 + libmatroska v1.5.2 / Lavf58.20.100

Video
ID                                       : 1
Format                                   : HEVC
Format/Info                              : High Efficiency Video Coding
Format profile                           : Main 10@L4@Main
Codec ID                                 : V_MPEGH/ISO/HEVC
Duration                                 : 24 min 30 s
Bit rate                                 : 1 860 kb/s
Width                                    : 1 920 pixels
Height                                   : 1 080 pixels
Display aspect ratio                     : 16:9
Frame rate mode                          : Constant
Frame rate                               : 23.976 (23976/1000) FPS
Original frame rate                      : 23.976 (24000/1001) FPS
Color space                              : YUV
Chroma subsampling                       : 4:2:0
Bit depth                                : 10 bits
Bits/(Pixel*Frame)                       : 0.037
Stream size                              : 326 MiB (93%)
Title                                    : [Judas] x265 10b
Writing library                          : x265 2.9:[Windows][GCC 8.2.0][64 bit] 10bit
Encoding settings                        : cpuid=1111039 / frame-threads=3 / numa-pools=8 / wpp / no-pmode / no-pme / no-psnr / no-ssim / log-level=2 / input-csp=1 / input-res=1920x1080 / interlace=0 / total-frames=0 / level-idc=0 / high-tier=1 / uhd-bd=0 / ref=3 / no-allow-non-conformance / no-repeat-headers / annexb / no-aud / no-hrd / info / hash=0 / no-temporal-layers / open-gop / min-keyint=24 / keyint=240 / gop-lookahead=0 / bframes=4 / b-adapt=2 / b-pyramid / bframe-bias=0 / rc-lookahead=20 / lookahead-slices=6 / scenecut=40 / radl=0 / no-intra-refresh / ctu=64 / min-cu-size=8 / no-rect / no-amp / max-tu-size=32 / tu-inter-depth=1 / tu-intra-depth=1 / limit-tu=0 / rdoq-level=0 / dynamic-rd=0.00 / no-ssim-rd / signhide / no-tskip / nr-intra=0 / nr-inter=0 / no-constrained-intra / strong-intra-smoothing / max-merge=2 / limit-refs=3 / no-limit-modes / me=1 / subme=2 / merange=57 / temporal-mvp / weightp / no-weightb / no-analyze-src-pics / deblock=0:0 / sao / no-sao-non-deblock / rd=3 / no-early-skip / rskip / no-fast-intra / no-tskip-fast / no-cu-lossless / no-b-intra / no-splitrd-skip / rdpenalty=0 / psy-rd=2.00 / psy-rdoq=0.00 / no-rd-refine / no-lossless / cbqpoffs=0 / crqpoffs=0 / rc=crf / crf=24.0 / qcomp=0.60 / qpstep=4 / stats-write=0 / stats-read=0 / ipratio=1.40 / pbratio=1.30 / aq-mode=1 / aq-strength=1.00 / cutree / zone-count=0 / no-strict-cbr / qg-size=32 / no-rc-grain / qpmax=69 / qpmin=0 / no-const-vbv / sar=1 / overscan=0 / videoformat=5 / range=0 / colorprim=1 / transfer=1 / colormatrix=1 / chromaloc=0 / display-window=0 / max-cll=0,0 / min-luma=0 / max-luma=1023 / log2-max-poc-lsb=8 / vui-timing-info / vui-hrd-info / slices=1 / no-opt-qp-pps / no-opt-ref-list-length-pps / no-multi-pass-opt-rps / scenecut-bias=0.05 / no-opt-cu-delta-qp / no-aq-motion / no-hdr / no-hdr-opt / no-dhdr10-opt / no-idr-recovery-sei / analysis-reuse-level=5 / scale-factor=0 / refine-intra=0 / refine-inter=0 / refine-mv=0 / no-limit-sao / ctu-info=0 / no-lowpass-dct / refine-mv-type=0 / copy-pic=1 / max-ausize-factor=1.0 / no-dynamic-refine / no-single-sei
Language                                 : Japanese
Default                                  : Yes
Forced                                   : No
Color range                              : Limited
Color primaries                          : BT.709
Transfer characteristics                 : BT.709
Matrix coefficients                      : BT.709

Audio
ID                                       : 2
Format                                   : Opus
Codec ID                                 : A_OPUS
Duration                                 : 24 min 30 s
Bit rate                                 : 126 kb/s
Channel(s)                               : 2 channels
Channel layout                           : L R
Sampling rate                            : 48.0 kHz
Frame rate                               : 50.000 FPS (960 SPF)
Compression mode                         : Lossy
Delay relative to video                  : -7 ms
Stream size                              : 22.1 MiB (6%)
Title                                    : [Judas] JAP Stereo (Opus 128Kbps)
Language                                 : Japanese
Default                                  : Yes
Forced                                   : No

Text #1
ID                                       : 3
Format                                   : ASS
Codec ID                                 : S_TEXT/ASS
Codec ID/Info                            : Advanced Sub Station Alpha
Duration                                 : 24 min 25 s
Bit rate                                 : 177 b/s
Count of elements                        : 428
Compression mode                         : Lossless
Stream size                              : 31.8 KiB (0%)
Title                                    : English
Language                                 : English
Default                                  : No
Forced                                   : No

Text #2
ID                                       : 4
Format                                   : ASS
Codec ID                                 : S_TEXT/ASS
Codec ID/Info                            : Advanced Sub Station Alpha
Duration                                 : 24 min 17 s
Bit rate                                 : 136 b/s
Count of elements                        : 356
Compression mode                         : Lossless
Stream size                              : 24.3 KiB (0%)
Title                                    : French
Language                                 : French
Default                                  : No
Forced                                   : No

Text #3
ID                                       : 5
Format                                   : ASS
Codec ID                                 : S_TEXT/ASS
Codec ID/Info                            : Advanced Sub Station Alpha
Duration                                 : 24 min 25 s
Bit rate                                 : 137 b/s
Count of elements                        : 361
Compression mode                         : Lossless
Stream size                              : 24.7 KiB (0%)
Title                                    : German
Language                                 : German
Default                                  : No
Forced                                   : No

Text #4
ID                                       : 6
Format                                   : ASS
Codec ID                                 : S_TEXT/ASS
Codec ID/Info                            : Advanced Sub Station Alpha
Duration                                 : 24 min 25 s
Bit rate                                 : 181 b/s
Count of elements                        : 426
Compression mode                         : Lossless
Stream size                              : 32.5 KiB (0%)
Title                                    : Italian
Language                                 : Italian
Default                                  : No
Forced                                   : No

Text #5
ID                                       : 7
Format                                   : ASS
Codec ID                                 : S_TEXT/ASS
Codec ID/Info                            : Advanced Sub Station Alpha
Duration                                 : 24 min 20 s
Bit rate                                 : 126 b/s
Count of elements                        : 372
Compression mode                         : Lossless
Stream size                              : 22.5 KiB (0%)
Title                                    : Spanish[ESP]
Language                                 : Spanish
Default                                  : No
Forced                                   : No

Text #6
ID                                       : 8
Format                                   : ASS
Codec ID                                 : S_TEXT/ASS
Codec ID/Info                            : Advanced Sub Station Alpha
Duration                                 : 24 min 20 s
Bit rate                                 : 124 b/s
Count of elements                        : 369
Compression mode                         : Lossless
Stream size                              : 22.2 KiB (0%)
Title                                    : Spanish[LAT]
Language                                 : Spanish
Default                                  : No
Forced                                   : No

Text #7
ID                                       : 9
Format                                   : ASS
Codec ID                                 : S_TEXT/ASS
Codec ID/Info                            : Advanced Sub Station Alpha
Duration                                 : 24 min 25 s
Bit rate                                 : 166 b/s
Count of elements                        : 430
Compression mode                         : Lossless
Stream size                              : 29.8 KiB (0%)
Title                                    : Brazilian Portuguese
Language                                 : Portuguese
Default                                  : No
Forced                                   : No

Text #8
ID                                       : 10
Format                                   : ASS
Codec ID                                 : S_TEXT/ASS
Codec ID/Info                            : Advanced Sub Station Alpha
Duration                                 : 24 min 18 s
Bit rate                                 : 210 b/s
Count of elements                        : 426
Compression mode                         : Lossless
Stream size                              : 37.5 KiB (0%)
Title                                    : Russian
Language                                 : Russian
Default                                  : No
Forced                                   : No

Text #9
ID                                       : 11
Format                                   : ASS
Codec ID                                 : S_TEXT/ASS
Codec ID/Info                            : Advanced Sub Station Alpha
Duration                                 : 24 min 25 s
Bit rate                                 : 207 b/s
Count of elements                        : 434
Compression mode                         : Lossless
Stream size                              : 37.2 KiB (0%)
Title                                    : Arabic
Language                                 : Arabic
Default                                  : No
Forced                                   : No

Other Files in this Torrent
[Judas] Mairimashita! Iruma-kun - S01E02.mkv
beta
Anime DDL+NZB mirror
Current Time: 18/01/2021 19:10



About/FAQs