File Size205.9 MB (215,924,218 bytes)
DownloadAnonFiles | ClickNUpload | DropAPK | MultiUp
  • BdUpload
  • DownAce
  • Fichier
  • FileCloud
  • Filerio
  • FilesCdn
  • IndiShare
  • Kbagi
  • Turbobit
  • UpToBox
  • Uppit
| SolidFiles | ZippyShare
HashesCRC32: 09385B1B, MD5: 307CE559DB790C81541CB2006FE5FD20, SHA1: FF654EA34FC6E98B3E642CB83495E38CE2FC35E8, SHA256: 3429FD1A676345C098229EE6BF63D0BC1FF45E956A534073B48E094D66E473A5, ED2K: 87085297BD3CA64F9B124548C7053100
Screenshots
screenshotscreenshotscreenshotscreenshotscreenshot
SubtitlesAll Attachments | English [eng, ASS], French [fre, ASS], German [ger, ASS], Italian [ita, ASS], Spanish[ESP] [spa, ASS], Spanish[LAT] [spa, ASS], Brazilian Portuguese [por, ASS], Russian [rus, ASS], Arabic [ara, ASS]
Additional Info
General
Unique ID                                : 18515186790823913269040564914872726107 (0xDEDE53031BF7385F675935E2109325B)
Complete name                            : [Judas] Hige wo Soru Soshite Joshikousei wo Hirou - S01E10.mkv
Format                                   : Matroska
Format version                           : Version 4
File size                                : 206 MiB
Duration                                 : 23 min 40 s
Overall bit rate                         : 1 216 kb/s
Encoded date                             : UTC 2021-06-28 07:57:24
Writing application                      : mkvmerge v58.0.0 ('Supper's Ready') 64-bit
Writing library                          : libebml v1.4.2 + libmatroska v1.6.4 / Lavf58.35.101
Attachments                              : A Massir Ballpoint.ttf / A Massir Spray.ttf / A Mitra 2014 Bold.ttf / A Negaar.ttf / A Noor.ttf / Abuhmeda - f2.ttf / ABUHMEDA FREE.TTF / ACS Akeek Extra Bold.ttf / AF_Aseer Normal Traditional.TTF / AF_Hijaz Normal.TTF / AGA Aladdin Regular.ttf / Bahij Nassim Bold.ttf / Calibri Bold.ttf / CoconNextArabic-Light.otf / CoconNextArabic-Regular.OTF / DG Ghayaty.ttf / FOT PopJoy Std Stripped B.otf / FS_Africa.ttf / FS_Free.ttf / GE Curves Medium.ttf / GE Heritage Two Medium.otf / GE Serif Medium.otf / GEDinarTwoMedium.otf / Hacen Algeria Bd.ttf / Hacen Algeria Hd.ttf / Hacen Beirut Lt X3.ttf / Hacen Beirut.TTF / Hacen Extender Bd.ttf / Hacen Maghreb Bd.ttf / Hayah.otf / Hayah.ttf / Janda Manatee Solid.ttf / Lato Regular.TTF / Nebras Black.otf / Sultan Medium.TTF / UVN Bay Buom Hep Nang.ttf / هشام الشرق طبيعي.ttf / A Farzian 2.ttf / A Hemmat.ttf / A Jannat LT Bold.ttf / A Jannat LT.otf / A Kavir.ttf / arialbd.ttf / arialbi.ttf / Arial_0.ttf / ariblk_0.TTF / calibri.ttf / comicbd.ttf / comic_0.ttf / georgiab.ttf / georgiaz.ttf / georgia_0.ttf / impact_0.ttf / Tahoma_0.ttf / times_0.ttf / trebuc_0.ttf / verdana_0.ttf / AdobeArabic-Bold.otf / AdobeArabic-BoldItalic.otf / AdobeArabic-Italic.otf / AdobeArabic-Regular.otf

Video
ID                                       : 1
Format                                   : HEVC
Format/Info                              : High Efficiency Video Coding
Format profile                           : Main 10@L5@Main
Codec ID                                 : V_MPEGH/ISO/HEVC
Duration                                 : 23 min 40 s
Bit rate                                 : 1 006 kb/s
Width                                    : 1 920 pixels
Height                                   : 1 080 pixels
Display aspect ratio                     : 16:9
Frame rate mode                          : Constant
Frame rate                               : 23.976 (24000/1001) FPS
Color space                              : YUV
Chroma subsampling                       : 4:2:0
Bit depth                                : 10 bits
Bits/(Pixel*Frame)                       : 0.020
Stream size                              : 170 MiB (83%)
Title                                    : [Judas] x265 10b
Writing library                          : x265 3.4+26-ga82c6c7a7:[Windows][GCC 10.2.0][64 bit] 10bit
Encoding settings                        : cpuid=1111039 / frame-threads=5 / numa-pools=+ / wpp / no-pmode / no-pme / no-psnr / no-ssim / log-level=4 / csv / csv-log-level=2 / input-csp=1 / input-res=1920x1080 / interlace=0 / total-frames=34047 / level-idc=0 / high-tier=1 / uhd-bd=0 / ref=6 / no-allow-non-conformance / no-repeat-headers / annexb / no-aud / no-hrd / info / hash=0 / no-temporal-layers / no-open-gop / min-keyint=24 / keyint=240 / gop-lookahead=0 / bframes=8 / b-adapt=2 / b-pyramid / bframe-bias=0 / rc-lookahead=100 / lookahead-slices=4 / scenecut=40 / hist-scenecut=0 / radl=0 / no-splice / no-intra-refresh / ctu=64 / min-cu-size=8 / rect / no-amp / max-tu-size=32 / tu-inter-depth=3 / tu-intra-depth=3 / limit-tu=0 / rdoq-level=2 / dynamic-rd=0.00 / no-ssim-rd / signhide / no-tskip / nr-intra=0 / nr-inter=0 / no-constrained-intra / strong-intra-smoothing / max-merge=5 / limit-refs=3 / limit-modes / me=3 / subme=5 / merange=57 / temporal-mvp / no-frame-dup / no-hme / weightp / weightb / no-analyze-src-pics / deblock=-2:-2 / sao / no-sao-non-deblock / rd=4 / selective-sao=4 / no-early-skip / no-rskip / no-fast-intra / no-tskip-fast / no-cu-lossless / b-intra / no-splitrd-skip / rdpenalty=0 / psy-rd=1.20 / psy-rdoq=1.50 / no-rd-refine / no-lossless / cbqpoffs=-1 / crqpoffs=-1 / rc=crf / crf=20.0 / qcomp=0.60 / qpstep=4 / stats-write=0 / stats-read=0 / ipratio=1.40 / pbratio=1.30 / aq-mode=3 / aq-strength=0.85 / cutree / zone-count=0 / no-strict-cbr / qg-size=32 / no-rc-grain / qpmax=69 / qpmin=0 / no-const-vbv / sar=0 / overscan=0 / videoformat=5 / range=0 / colorprim=2 / transfer=2 / colormatrix=2 / chromaloc=0 / display-window=0 / cll=0,0 / min-luma=0 / max-luma=1023 / log2-max-poc-lsb=8 / vui-timing-info / vui-hrd-info / slices=1 / no-opt-qp-pps / no-opt-ref-list-length-pps / no-multi-pass-opt-rps / scenecut-bias=0.05 / hist-threshold=0.03 / no-opt-cu-delta-qp / no-aq-motion / no-hdr10 / no-hdr10-opt / no-dhdr10-opt / no-idr-recovery-sei / analysis-reuse-level=0 / analysis-save-reuse-level=0 / analysis-load-reuse-level=0 / scale-factor=0 / refine-intra=0 / refine-inter=0 / refine-mv=1 / refine-ctu-distortion=0 / no-limit-sao / ctu-info=0 / no-lowpass-dct / refine-analysis-type=0 / copy-pic=1 / max-ausize-factor=1.0 / no-dynamic-refine / no-single-sei / no-hevc-aq / no-svt / no-field / qp-adaptation-range=1.00 / no-scenecut-aware-qpconformance-window-offsets / right=0 / bottom=0 / decoder-max-rate=0 / no-vbv-live-multi-pass
Language                                 : Japanese
Default                                  : Yes
Forced                                   : No

Audio
ID                                       : 2
Format                                   : AAC LC
Format/Info                              : Advanced Audio Codec Low Complexity
Codec ID                                 : A_AAC-2
Duration                                 : 23 min 40 s
Bit rate                                 : 128 kb/s
Channel(s)                               : 2 channels
Channel layout                           : L R
Sampling rate                            : 44.1 kHz
Frame rate                               : 43.066 FPS (1024 SPF)
Compression mode                         : Lossy
Stream size                              : 21.7 MiB (11%)
Title                                    : Japanese
Language                                 : Japanese
Default                                  : Yes
Forced                                   : No

Text #1
ID                                       : 3
Format                                   : ASS
Codec ID                                 : S_TEXT/ASS
Codec ID/Info                            : Advanced Sub Station Alpha
Duration                                 : 23 min 39 s
Bit rate                                 : 106 b/s
Count of elements                        : 320
Compression mode                         : Lossless
Stream size                              : 18.5 KiB (0%)
Title                                    : English
Language                                 : English
Default                                  : No
Forced                                   : No

Text #2
ID                                       : 4
Format                                   : ASS
Codec ID                                 : S_TEXT/ASS
Codec ID/Info                            : Advanced Sub Station Alpha
Duration                                 : 23 min 39 s
Bit rate                                 : 129 b/s
Count of elements                        : 326
Compression mode                         : Lossless
Stream size                              : 22.4 KiB (0%)
Title                                    : French
Language                                 : French
Default                                  : No
Forced                                   : No

Text #3
ID                                       : 5
Format                                   : ASS
Codec ID                                 : S_TEXT/ASS
Codec ID/Info                            : Advanced Sub Station Alpha
Duration                                 : 23 min 39 s
Bit rate                                 : 147 b/s
Count of elements                        : 359
Compression mode                         : Lossless
Stream size                              : 25.6 KiB (0%)
Title                                    : German
Language                                 : German
Default                                  : No
Forced                                   : No

Text #4
ID                                       : 6
Format                                   : ASS
Codec ID                                 : S_TEXT/ASS
Codec ID/Info                            : Advanced Sub Station Alpha
Duration                                 : 23 min 39 s
Bit rate                                 : 119 b/s
Count of elements                        : 345
Compression mode                         : Lossless
Stream size                              : 20.8 KiB (0%)
Title                                    : Italian
Language                                 : Italian
Default                                  : No
Forced                                   : No

Text #5
ID                                       : 7
Format                                   : ASS
Codec ID                                 : S_TEXT/ASS
Codec ID/Info                            : Advanced Sub Station Alpha
Duration                                 : 23 min 39 s
Bit rate                                 : 119 b/s
Count of elements                        : 316
Compression mode                         : Lossless
Stream size                              : 20.7 KiB (0%)
Title                                    : Spanish[ESP]
Language                                 : Spanish
Default                                  : No
Forced                                   : No

Text #6
ID                                       : 8
Format                                   : ASS
Codec ID                                 : S_TEXT/ASS
Codec ID/Info                            : Advanced Sub Station Alpha
Duration                                 : 23 min 39 s
Bit rate                                 : 118 b/s
Count of elements                        : 316
Compression mode                         : Lossless
Stream size                              : 20.6 KiB (0%)
Title                                    : Spanish[LAT]
Language                                 : Spanish
Default                                  : No
Forced                                   : No

Text #7
ID                                       : 9
Format                                   : ASS
Codec ID                                 : S_TEXT/ASS
Codec ID/Info                            : Advanced Sub Station Alpha
Duration                                 : 23 min 39 s
Bit rate                                 : 107 b/s
Count of elements                        : 319
Compression mode                         : Lossless
Stream size                              : 18.6 KiB (0%)
Title                                    : Brazilian Portuguese
Language                                 : Portuguese
Default                                  : No
Forced                                   : No

Text #8
ID                                       : 10
Format                                   : ASS
Codec ID                                 : S_TEXT/ASS
Codec ID/Info                            : Advanced Sub Station Alpha
Duration                                 : 23 min 40 s
Bit rate                                 : 166 b/s
Count of elements                        : 321
Compression mode                         : Lossless
Stream size                              : 28.9 KiB (0%)
Title                                    : Russian
Language                                 : Russian
Default                                  : No
Forced                                   : No

Text #9
ID                                       : 11
Format                                   : ASS
Codec ID                                 : S_TEXT/ASS
Codec ID/Info                            : Advanced Sub Station Alpha
Duration                                 : 23 min 39 s
Bit rate                                 : 510 b/s
Count of elements                        : 848
Compression mode                         : Lossless
Stream size                              : 88.4 KiB (0%)
Title                                    : Arabic
Language                                 : Arabic
Default                                  : No
Forced                                   : No

Other Files in this Torrent
[Judas] Hige wo Soru Soshite Joshikousei wo Hirou - S01E10.mkv
beta
Anime DDL+NZB mirror
Current Time: 04/12/2021 08:24



About/FAQs

Discord