File Size2.374 GB (2,549,234,553 bytes)
DownloadDownloadGG: Part1, Part2, Part3
MultiUp: Part1
  • BdUpload
  • DownAce
  • Fichier
  • FileCloud
  • Filerio
  • FilesCdn
  • IndiShare
  • Kbagi
  • Turbobit
  • UpToBox
  • Uppit
, Part2
  • BdUpload
  • DownAce
  • Fichier
  • FileCloud
  • Filerio
  • FilesCdn
  • IndiShare
  • Kbagi
  • Turbobit
  • UpToBox
  • Uppit
, Part3
  • BdUpload
  • DownAce
  • Fichier
  • FileCloud
  • Filerio
  • FilesCdn
  • IndiShare
  • Kbagi
  • Turbobit
  • UpToBox
  • Uppit
, Part4
  • BdUpload
  • DownAce
  • Fichier
  • FileCloud
  • Filerio
  • FilesCdn
  • IndiShare
  • Kbagi
  • Turbobit
  • UpToBox
  • Uppit
, Part5
  • BdUpload
  • DownAce
  • Fichier
  • FileCloud
  • Filerio
  • FilesCdn
  • IndiShare
  • Kbagi
  • Turbobit
  • UpToBox
  • Uppit

ZippyShare: Part1, Part2, Part3, Part4, Part5
HashesCRC32: 12252A40, MD5: 8EDD6E8F0E49B414A5AE0A57D6F69E26, SHA1: A6D4060501F6646088D8C416489D1292966B6017, SHA256: 5D7EB6535F47F5BB5C204C25B6A0DE93A0364FFD06D5D64E32FCC3FFAFFBB3BA, ED2K: 1E5CEF927B0C555C105D2185063AA66D
Screenshots
screenshotscreenshotscreenshotscreenshotscreenshot
SubtitlesAll Attachments | eng [ASS]
Additional Info
General
Unique ID                                : 95350440164334299355534171987545053286 (0x47BBD3A8A8FEDBC8FC5A021A81225866)
Complete name                            : Josee to Tora to Sakana-tachi [HEVC].mkv
Format                                   : Matroska
Format version                           : Version 4
File size                                : 2.37 GiB
Duration                                 : 1 h 38 min
Overall bit rate                         : 3 462 kb/s
Movie name                               : Josee to Tora to Sakana-tachi
Writing application                      : Lavf58.76.100
Writing library                          : Lavf58.76.100
ErrorDetectionType                       : Per level 1

Video
ID                                       : 1
Format                                   : HEVC
Format/Info                              : High Efficiency Video Coding
Format profile                           : Main@L4@Main
Codec ID                                 : V_MPEGH/ISO/HEVC
Duration                                 : 1 h 38 min
Bit rate                                 : 4 750 kb/s
Width                                    : 1 920 pixels
Height                                   : 804 pixels
Display aspect ratio                     : 2.40:1
Frame rate mode                          : Constant
Frame rate                               : 23.976 (24000/1001) FPS
Standard                                 : Component
Color space                              : YUV
Chroma subsampling                       : 4:2:0
Bit depth                                : 8 bits
Bits/(Pixel*Frame)                       : 0.128
Stream size                              : 3.26 GiB
Title                                    : BDrip by Jensen
Writing library                          : Lavc58.134.100 hevc_qsv
Language                                 : Japanese
Default                                  : Yes
Forced                                   : No
Color range                              : Limited

Audio
ID                                       : 3
Format                                   : E-AC-3
Format/Info                              : Enhanced AC-3
Commercial name                          : Dolby Digital Plus
Codec ID                                 : A_EAC3
Duration                                 : 1 h 38 min
Bit rate mode                            : Constant
Bit rate                                 : 640 kb/s
Channel(s)                               : 6 channels
Channel layout                           : L R C LFE Ls Rs
Sampling rate                            : 48.0 kHz
Frame rate                               : 31.250 FPS (1536 SPF)
Bit depth                                : 32 bits
Compression mode                         : Lossy
Stream size                              : 2.52 GiB
Writing library                          : Lavc58.134.100 eac3
Language                                 : Japanese
Service kind                             : Complete Main
Default                                  : Yes
Forced                                   : No

Text
ID                                       : 2
Format                                   : ASS
Codec ID                                 : S_TEXT/ASS
Codec ID/Info                            : Advanced Sub Station Alpha
Duration                                 : 1 h 37 min
Compression mode                         : Lossless
Writing library                          : Lavc58.134.100 ass
Language                                 : English
Default                                  : Yes
Forced                                   : No

Menu
00:00:00.000                             : :Avant
00:02:25.520                             : :Part A
00:14:01.674                             : :Part B
00:26:55.322                             : :Part C
00:38:08.327                             : :Part D
00:48:01.461                             : :Part E
01:00:20.116                             : :Part F
01:12:06.989                             : :Part G
01:21:10.699                             : :Part H
01:32:32.338                             : :ED
01:37:18.624                             : :END
beta
Anime DDL+NZB mirror
Current Time: 06/10/2022 07:07



About/FAQs

Discord