File Size10.92 GB (11,725,224,059 bytes)
DownloadDownloadGG: Part1, Part2, Part3, Part4, Part5, Part6, Part7, Part8, Part9, Part10, Part11
DropAPK: Part1, Part2, Part3, Part4, Part5, Part6
MultiUp: Part1
  • BdUpload
  • DownAce
  • Fichier
  • FileCloud
  • Filerio
  • FilesCdn
  • IndiShare
  • Kbagi
  • Turbobit
  • UpToBox
  • Uppit
, Part2
  • BdUpload
  • DownAce
  • Fichier
  • FileCloud
  • Filerio
  • FilesCdn
  • IndiShare
  • Kbagi
  • Turbobit
  • UpToBox
  • Uppit
, Part3
  • BdUpload
  • DownAce
  • Fichier
  • FileCloud
  • Filerio
  • FilesCdn
  • IndiShare
  • Kbagi
  • Turbobit
  • UpToBox
  • Uppit
, Part4
  • BdUpload
  • DownAce
  • Fichier
  • FileCloud
  • Filerio
  • FilesCdn
  • IndiShare
  • Kbagi
  • Turbobit
  • UpToBox
  • Uppit
, Part5
  • BdUpload
  • DownAce
  • Fichier
  • FileCloud
  • Filerio
  • FilesCdn
  • IndiShare
  • Kbagi
  • Turbobit
  • UpToBox
  • Uppit
, Part6
  • BdUpload
  • DownAce
  • Fichier
  • FileCloud
  • Filerio
  • FilesCdn
  • IndiShare
  • Kbagi
  • Turbobit
  • UpToBox
  • Uppit
, Part7
  • BdUpload
  • DownAce
  • Fichier
  • FileCloud
  • Filerio
  • FilesCdn
  • IndiShare
  • Kbagi
  • Turbobit
  • UpToBox
  • Uppit
, Part8
  • BdUpload
  • DownAce
  • Fichier
  • FileCloud
  • Filerio
  • FilesCdn
  • IndiShare
  • Kbagi
  • Turbobit
  • UpToBox
  • Uppit
, Part9
  • BdUpload
  • DownAce
  • Fichier
  • FileCloud
  • Filerio
  • FilesCdn
  • IndiShare
  • Kbagi
  • Turbobit
  • UpToBox
  • Uppit
, Part10
  • BdUpload
  • DownAce
  • Fichier
  • FileCloud
  • Filerio
  • FilesCdn
  • IndiShare
  • Kbagi
  • Turbobit
  • UpToBox
  • Uppit
, Part11
  • BdUpload
  • DownAce
  • Fichier
  • FileCloud
  • Filerio
  • FilesCdn
  • IndiShare
  • Kbagi
  • Turbobit
  • UpToBox
  • Uppit
, Part12
  • BdUpload
  • DownAce
  • Fichier
  • FileCloud
  • Filerio
  • FilesCdn
  • IndiShare
  • Kbagi
  • Turbobit
  • UpToBox
  • Uppit
, Part13
  • BdUpload
  • DownAce
  • Fichier
  • FileCloud
  • Filerio
  • FilesCdn
  • IndiShare
  • Kbagi
  • Turbobit
  • UpToBox
  • Uppit
, Part14
  • BdUpload
  • DownAce
  • Fichier
  • FileCloud
  • Filerio
  • FilesCdn
  • IndiShare
  • Kbagi
  • Turbobit
  • UpToBox
  • Uppit
, Part15
  • BdUpload
  • DownAce
  • Fichier
  • FileCloud
  • Filerio
  • FilesCdn
  • IndiShare
  • Kbagi
  • Turbobit
  • UpToBox
  • Uppit
, Part16
  • BdUpload
  • DownAce
  • Fichier
  • FileCloud
  • Filerio
  • FilesCdn
  • IndiShare
  • Kbagi
  • Turbobit
  • UpToBox
  • Uppit
, Part17
  • BdUpload
  • DownAce
  • Fichier
  • FileCloud
  • Filerio
  • FilesCdn
  • IndiShare
  • Kbagi
  • Turbobit
  • UpToBox
  • Uppit
, Part18
  • BdUpload
  • DownAce
  • Fichier
  • FileCloud
  • Filerio
  • FilesCdn
  • IndiShare
  • Kbagi
  • Turbobit
  • UpToBox
  • Uppit
, Part19
  • BdUpload
  • DownAce
  • Fichier
  • FileCloud
  • Filerio
  • FilesCdn
  • IndiShare
  • Kbagi
  • Turbobit
  • UpToBox
  • Uppit
, Part20
  • BdUpload
  • DownAce
  • Fichier
  • FileCloud
  • Filerio
  • FilesCdn
  • IndiShare
  • Kbagi
  • Turbobit
  • UpToBox
  • Uppit
, Part21
  • BdUpload
  • DownAce
  • Fichier
  • FileCloud
  • Filerio
  • FilesCdn
  • IndiShare
  • Kbagi
  • Turbobit
  • UpToBox
  • Uppit
, Part22
  • BdUpload
  • DownAce
  • Fichier
  • FileCloud
  • Filerio
  • FilesCdn
  • IndiShare
  • Kbagi
  • Turbobit
  • UpToBox
  • Uppit
, Part23
  • BdUpload
  • DownAce
  • Fichier
  • FileCloud
  • Filerio
  • FilesCdn
  • IndiShare
  • Kbagi
  • Turbobit
  • UpToBox
  • Uppit

SolidFiles: Part1, Part2, Part3, Part4, Part5, Part6, Part7, Part8, Part9, Part10, Part11, Part12, Part13, Part14, Part15, Part16, Part17, Part18, Part19, Part20, Part21, Part22, Part23
ZippyShare: Part1, Part2, Part3, Part4, Part5, Part6, Part7, Part8, Part9, Part10, Part11, Part12, Part13, Part14, Part15, Part16, Part17, Part18, Part19, Part20, Part21, Part22, Part23
HashesCRC32: 9D6E213B, MD5: B4C9CECCAA3F57AC4F686742AEA0287B, SHA1: 24C2163869968F3CE2307C552B223B0E2EC6B773, SHA256: 2EF26675FC72FE43B62434CD85330154B8E6B6430B19BC2DA498FF6B719AD8EE, ED2K: EC63DAA9DC4AC89229116CDFE43628A4
Screenshots
screenshotscreenshotscreenshotscreenshotscreenshot
SubtitlesAll Attachments | MaxEffort [eng, ASS]
Additional Info
General
Unique ID                                : 271478920170027947852346179545858177484 (0xCC3CF02B6B8637CC374CE74A2911F9CC)
Complete name                            : Josee.to.Tora.to.Sakana-tachi.2020.1080p.BDRip.Hi10P.DTS-HD.MA+FLAC.x264-TTGA.mkv
Format                                   : Matroska
Format version                           : Version 4
File size                                : 10.9 GiB
Duration                                 : 1 h 38 min
Overall bit rate mode                    : Variable
Overall bit rate                         : 15.9 Mb/s
Movie name                               : Josee.to.Tora.to.Sakana-tachi.2020.1080p.BDRip.Hi10P.DTS-HD.MA+FLAC.x264-TTGA
Encoded date                             : UTC 2021-09-23 12:08:33
Writing application                      : mkvmerge v59.0.0 ('Shining Star') 64-bit
Writing library                          : libebml v1.4.2 + libmatroska v1.6.4
Cover                                    : Yes
Attachments                              : BrownBagLunch.ttf / Caveat-Regular.ttf / CCLEGENDARYLEGERDEMAIN-REG.OTF / DJBYARDSALEMARKER-BOLD.TTF / F5AJJI3A.TTF / F5AJJWEC.TTF / Folks-Bold.ttf / FOT-OEDKTRSTD-E.OTF / FOT-TSUKUAMDMINSTD-E.OTF / GANDHISANS-BOLD.OTF / GANDHISANS-BOLDITALIC.OTF / HannaHandwriting.ttf / Inkfree.ttf / Iwata Gothic Old Pr6 B.otf / K Gothic.ttf / KGINeedAFont.ttf / KGLoveSomebody-Regular.ttf / Lato-Medium.ttf / Margarine-Regular.ttf / MTCORSVA.TTF / quadraat.ttf / Roboto-Bold.ttf / rounded-mplus-1p-regular.ttf / 123Marker.ttf / ARRBD_ECL.TTF / avgardneclipse.ttf / BD_Cartoon_Shout.ttf / Black Chancery.ttf / BLOCK-BERTHOLD-REGULAR.TTF / cover.jpg

Video
ID                                       : 1
Format                                   : AVC
Format/Info                              : Advanced Video Codec
Format profile                           : High 10@L5.1
Format settings                          : CABAC / 11 Ref Frames
Format settings, CABAC                   : Yes
Format settings, ReFrames                : 11 frames
Codec ID                                 : V_MPEG4/ISO/AVC
Duration                                 : 1 h 38 min
Bit rate                                 : 10.9 Mb/s
Width                                    : 1 920 pixels
Height                                   : 804 pixels
Display aspect ratio                     : 2.40:1
Frame rate mode                          : Constant
Frame rate                               : 23.976 (24000/1001) FPS
Color space                              : YUV
Chroma subsampling                       : 4:2:0
Bit depth                                : 10 bits
Scan type                                : Progressive
Bits/(Pixel*Frame)                       : 0.294
Stream size                              : 7.46 GiB (68%)
Title                                    : Presented By TTGA@EMBER
Writing library                          : x264 core 161 r3033 0d754ec
Encoding settings                        : cabac=1 / ref=11 / deblock=1:0:-1 / analyse=0x3:0x133 / me=umh / subme=10 / psy=1 / psy_rd=0.90:0.00 / mixed_ref=1 / me_range=32 / chroma_me=1 / trellis=2 / 8x8dct=1 / cqm=0 / deadzone=21,11 / fast_pskip=0 / chroma_qp_offset=-2 / threads=12 / lookahead_threads=3 / sliced_threads=0 / nr=0 / decimate=0 / interlaced=0 / bluray_compat=0 / constrained_intra=0 / bframes=16 / b_pyramid=2 / b_adapt=2 / b_bias=0 / direct=3 / weightb=1 / open_gop=0 / weightp=2 / keyint=250 / keyint_min=23 / scenecut=40 / intra_refresh=0 / rc=crf / mbtree=0 / crf=14.3 / qcomp=0.72 / qpmin=0 / qpmax=81 / qpstep=4 / ip_ratio=1.40 / pb_ratio=1.30 / aq=3:0.90
Language                                 : English
Default                                  : Yes
Forced                                   : No

Audio #1
ID                                       : 2
ID in the original source medium         : 4353 (0x1101)
Format                                   : DTS XLL
Format/Info                              : Digital Theater Systems
Commercial name                          : DTS-HD Master Audio
Codec ID                                 : A_DTS
Duration                                 : 1 h 38 min
Bit rate mode                            : Variable
Bit rate                                 : 3 669 kb/s
Channel(s)                               : 6 channels
Channel layout                           : C L R Ls Rs LFE
Sampling rate                            : 48.0 kHz
Frame rate                               : 93.750 FPS (512 SPF)
Bit depth                                : 24 bits
Compression mode                         : Lossless
Stream size                              : 2.52 GiB (23%)
Title                                    : Multi-Channel_JP
Language                                 : Japanese
Default                                  : Yes
Forced                                   : No
Original source medium                   : Blu-ray

Audio #2
ID                                       : 3
Format                                   : FLAC
Format/Info                              : Free Lossless Audio Codec
Codec ID                                 : A_FLAC
Duration                                 : 1 h 38 min
Bit rate mode                            : Variable
Bit rate                                 : 1 306 kb/s
Channel(s)                               : 2 channels
Channel layout                           : L R
Sampling rate                            : 48.0 kHz
Frame rate                               : 11.719 FPS (4096 SPF)
Bit depth                                : 24 bits
Compression mode                         : Lossless
Stream size                              : 917 MiB (8%)
Title                                    : Sterio_JP
Writing library                          : libFLAC 1.2.1 (UTC 2007-09-17)
Language                                 : Japanese
Default                                  : No
Forced                                   : No

Text
ID                                       : 4
Format                                   : ASS
Codec ID                                 : S_TEXT/ASS
Codec ID/Info                            : Advanced Sub Station Alpha
Duration                                 : 1 h 37 min
Bit rate                                 : 6 990 b/s
Count of elements                        : 18899
Compression mode                         : Lossless
Stream size                              : 4.89 MiB (0%)
Title                                    : MaxEffort
Language                                 : English
Default                                  : Yes
Forced                                   : No

Menu
00:00:00.000                             : Chapter 01
00:02:25.520                             : Chapter 02
00:14:01.674                             : Chapter 03
00:26:55.322                             : Chapter 04
00:38:08.327                             : Chapter 05
00:48:01.461                             : Chapter 06
01:00:20.116                             : Chapter 07
01:12:06.989                             : Chapter 08
01:21:10.699                             : Chapter 09
01:32:32.338                             : Chapter 10
01:37:18.624                             : Chapter 11
beta
Anime DDL+NZB mirror
Current Time: 14/08/2022 19:25



About/FAQs

Discord