File Size905.0 MB (948,914,325 bytes)
DownloadClickNUpload | DownloadGG | KrakenFiles
MultiUp: Part1
  • BdUpload
  • DownAce
  • Fichier
  • FileCloud
  • Filerio
  • FilesCdn
  • IndiShare
  • Kbagi
  • Turbobit
  • UpToBox
  • Uppit
, Part2
  • BdUpload
  • DownAce
  • Fichier
  • FileCloud
  • Filerio
  • FilesCdn
  • IndiShare
  • Kbagi
  • Turbobit
  • UpToBox
  • Uppit

ZippyShare: Part1, Part2
HashesCRC32: 9E055440, MD5: ECAF9A9C24F086BEFD61DCF1D394FC0D, SHA1: 06B76C62631BD156032514A145E3B282866944EA, SHA256: 07C7ED154796CA3B57F2DB157E10D988AEEDC87C91F787D8D57448095ADCE7B9, ED2K: D7DBFAA1F387A89006B6F492D8510745
Screenshots
screenshotscreenshotscreenshotscreenshotscreenshot
SubtitlesAll Attachments | eng [ASS], Signs & Songs [eng, ASS]
Additional Info
General
Unique ID                                : 158080926424086348249240986554904931751 (0x76ED476B7929D821E9EC86BEF884EDA7)
Complete name                            : JoJo's Bizarre Adventure - S05E16.mkv
Format                                   : Matroska
Format version                           : Version 4
File size                                : 905 MiB
Duration                                 : 23 min 37 s
Overall bit rate mode                    : Variable
Overall bit rate                         : 5 357 kb/s
Encoded date                             : UTC 2022-09-22 21:58:35
Writing application                      : mkvmerge v68.0.0 ('The Curtain') 64-bit
Writing library                          : libebml v1.4.2 + libmatroska v1.6.4
Attachments                              : D-DIN.otf / D-DIN-Bold.otf / DreamNight.ttf / fansubBlock.ttf / FS Benjamin Regular.otf / Nunito.ttf / Scribble Note DEMO.otf / SF Fedora.ttf / times.ttf

Video
ID                                       : 1
Format                                   : AVC
Format/Info                              : Advanced Video Codec
Format profile                           : Main@L4.2
Format settings                          : CABAC / 1 Ref Frames
Format settings, CABAC                   : Yes
Format settings, Reference frames        : 1 frame
Codec ID                                 : V_MPEG4/ISO/AVC
Duration                                 : 23 min 37 s
Bit rate mode                            : Variable
Bit rate                                 : 5 093 kb/s
Maximum bit rate                         : 6 000 kb/s
Width                                    : 1 920 pixels
Height                                   : 1 080 pixels
Display aspect ratio                     : 16:9
Frame rate mode                          : Constant
Frame rate                               : 23.976 (24000/1001) FPS
Color space                              : YUV
Chroma subsampling                       : 4:2:0
Bit depth                                : 8 bits
Scan type                                : Progressive
Bits/(Pixel*Frame)                       : 0.102
Stream size                              : 860 MiB (95%)
Default                                  : Yes
Forced                                   : No

Audio #1
ID                                       : 2
Format                                   : AAC LC
Format/Info                              : Advanced Audio Codec Low Complexity
Codec ID                                 : A_AAC-2
Duration                                 : 23 min 37 s
Bit rate                                 : 126 kb/s
Channel(s)                               : 2 channels
Channel layout                           : L R
Sampling rate                            : 44.1 kHz
Frame rate                               : 43.066 FPS (1024 SPF)
Compression mode                         : Lossy
Delay relative to video                  : -23 ms
Stream size                              : 21.2 MiB (2%)
Language                                 : Japanese
Default                                  : Yes
Forced                                   : No

Audio #2
ID                                       : 3
Format                                   : AAC LC
Format/Info                              : Advanced Audio Codec Low Complexity
Codec ID                                 : A_AAC-2
Duration                                 : 23 min 37 s
Bit rate                                 : 126 kb/s
Channel(s)                               : 2 channels
Channel layout                           : L R
Sampling rate                            : 44.1 kHz
Frame rate                               : 43.066 FPS (1024 SPF)
Compression mode                         : Lossy
Delay relative to video                  : -23 ms
Stream size                              : 21.2 MiB (2%)
Language                                 : English
Default                                  : No
Forced                                   : No

Text #1
ID                                       : 4
Format                                   : ASS
Codec ID                                 : S_TEXT/ASS
Codec ID/Info                            : Advanced Sub Station Alpha
Duration                                 : 23 min 34 s
Bit rate                                 : 116 b/s
Count of elements                        : 332
Compression mode                         : Lossless
Stream size                              : 20.2 KiB (0%)
Language                                 : English
Default                                  : Yes
Forced                                   : No

Text #2
ID                                       : 5
Format                                   : ASS
Codec ID                                 : S_TEXT/ASS
Codec ID/Info                            : Advanced Sub Station Alpha
Duration                                 : 23 min 34 s
Bit rate                                 : 20 b/s
Count of elements                        : 42
Compression mode                         : Lossless
Stream size                              : 3.51 KiB (0%)
Title                                    : Signs & Songs
Language                                 : English
Default                                  : No
Forced                                   : No

Menu
00:00:00.000                             : :Episode 16: The Secret Guard of Westwood - Part A
00:00:52.000                             : :OP
00:02:22.000                             : :Episode 16: The Secret Guard of Westwood - Part B
00:12:54.000                             : :Episode 16: The Secret Guard of Westwood - Part C
00:22:06.000                             : :ED
beta
Anime DDL+NZB mirror
Current Time: 28/11/2022 11:52



About/FAQs

Discord