File Size264.1 MB (276,981,270 bytes)
DownloadClickNUpload | Jheberg | MultiUp
  • BdUpload
  • DownAce
  • Fichier
  • FileCloud
  • Filerio
  • FilesCdn
  • IndiShare
  • Kbagi
  • Turbobit
  • UpToBox
  • Uppit
| OpenLoad | Sendspace | SolidFiles | ZippyShare
HashesCRC32: 0DFA7F5D, MD5: 59ACC7AECC5F04A519495C6530D92FAF, SHA1: C90AB1EDF91D104061C3001094FCB225DB2DE6D4, SHA256: D105C37570B99B511506348D8672D5C4B488A9AA9ADD75C230F5E5E6F75A40AA, ED2K: 894D6AABE8CFF9FDB204E5C67AABCDA8
Screenshots
screenshotscreenshotscreenshotscreenshotscreenshot
SubtitlesAll Attachments | Subtitles (ASS) [eng, ASS]
Additional Info
General
Unique ID                                : 231294353900811627122488289278041301132 (0xAE01AC16405220B5707F9D9BD7D0A08C)
Complete name                            : [Johnny-englishsubs]_UFO_Robot_Grendizer_10_[0DFA7F5D].mkv
Format                                   : Matroska
Format version                           : Version 4
File size                                : 264 MiB
Duration                                 : 25 min 34 s
Overall bit rate                         : 1 444 kb/s
Encoded date                             : UTC 2019-08-25 14:20:03
Writing application                      : mkvmerge v37.0.0 ('Leave It') 64-bit
Writing library                          : libebml v1.3.9 + libmatroska v1.5.2
Attachments                              : Renaiss-Italic.ttf / arial.ttf / ariblk.ttf / tahoma.ttf / GOTHIC.TTF / COPRGTB.TTF

Video
ID                                       : 1
Format                                   : AVC
Format/Info                              : Advanced Video Codec
Format profile                           : High@L3.1
Format settings                          : CABAC / 15 Ref Frames
Format settings, CABAC                   : Yes
Format settings, ReFrames                : 15 frames
Codec ID                                 : V_MPEG4/ISO/AVC
Duration                                 : 25 min 34 s
Bit rate                                 : 1 313 kb/s
Width                                    : 640 pixels
Height                                   : 480 pixels
Display aspect ratio                     : 4:3
Frame rate mode                          : Constant
Frame rate                               : 23.976 (24000/1001) FPS
Color space                              : YUV
Chroma subsampling                       : 4:2:0
Bit depth                                : 8 bits
Scan type                                : Progressive
Bits/(Pixel*Frame)                       : 0.178
Stream size                              : 240 MiB (91%)
Writing library                          : x264 core 142 r2431 ac76440
Encoding settings                        : cabac=1 / ref=15 / deblock=1:1:1 / analyse=0x3:0x133 / me=umh / subme=9 / psy=1 / psy_rd=0.40:0.00 / mixed_ref=1 / me_range=16 / chroma_me=1 / trellis=2 / 8x8dct=1 / cqm=0 / deadzone=21,11 / fast_pskip=1 / chroma_qp_offset=-2 / threads=1 / lookahead_threads=1 / sliced_threads=0 / nr=0 / decimate=1 / interlaced=0 / bluray_compat=0 / constrained_intra=0 / bframes=5 / b_pyramid=2 / b_adapt=2 / b_bias=0 / direct=3 / weightb=1 / open_gop=0 / weightp=2 / keyint=240 / keyint_min=23 / scenecut=40 / intra_refresh=0 / rc_lookahead=60 / rc=crf / mbtree=1 / crf=18.0 / qcomp=0.60 / qpmin=0 / qpmax=69 / qpstep=4 / vbv_maxrate=17500 / vbv_bufsize=17500 / crf_max=0.0 / nal_hrd=none / filler=0 / ip_ratio=1.40 / aq=1:0.60
Language                                 : Japanese
Default                                  : Yes
Forced                                   : No

Audio
ID                                       : 2
Format                                   : AAC LC
Format/Info                              : Advanced Audio Codec Low Complexity
Codec ID                                 : A_AAC-2
Duration                                 : 25 min 34 s
Bit rate                                 : 118 kb/s
Channel(s)                               : 2 channels
Channel layout                           : L R
Sampling rate                            : 48.0 kHz
Frame rate                               : 46.875 FPS (1024 SPF)
Compression mode                         : Lossy
Stream size                              : 21.6 MiB (8%)
Language                                 : Japanese
Default                                  : Yes
Forced                                   : No

Text
ID                                       : 3
Format                                   : ASS
Codec ID                                 : S_TEXT/ASS
Codec ID/Info                            : Advanced Sub Station Alpha
Duration                                 : 25 min 27 s
Bit rate                                 : 75 b/s
Count of elements                        : 288
Compression mode                         : Lossless
Stream size                              : 14.1 KiB (0%)
Title                                    : Subtitles (ASS)
Language                                 : English
Default                                  : Yes
Forced                                   : No

Menu
00:00:00.000                             : :Opening (Tobe Grendizer)
00:01:10.070                             : :Title
00:01:18.453                             : :Part 1
00:12:21.240                             : :Part 2
00:23:51.263                             : :Ending (Uchuu no Ouja Grendizer)
00:25:01.333                             : :Next episode
beta
Anime DDL+NZB mirror
Current Time: 10/04/2020 19:10



About/FAQs