[JaS] Download - Namu Amida Butsu wa Ai no Uta [LDRip 640x480 x264 AAC].mkv


File Size869.9 MB (912,125,300 bytes)
DownloadClickNUpload | DiskoKosmiko | Jheberg | MultiUp | OpenLoad
Sendspace: Part1, Part2, Part3
SolidFiles: Part1, Part2
ZippyShare: Part1, Part2
Encrypted DownloadDirect
Password:
HashesCRC32: C4011CAC, MD5: 76520E8DD1100A1A5977F8BD6FBAC6B1, SHA1: 15818B645860017B4C1E81880877AD7082FF45F8, SHA256: 927577B378D524B6C592041D04C66DE9B6F9B6B1B7CFD1D629D9D0C2BE51B60A, ED2K: 98E71F5E8DF37DB6B8DB2EDBB44A8BED
Screenshots
screenshotscreenshotscreenshotscreenshotscreenshot
SubtitlesAll Attachments | English [GorimSubs], modified [eng, ASS]
Additional Info
General
Unique ID                                : 125498177648917445523753381250826455726 (0x5E6A11E061203817B28DCAD3B65F4AAE)
Complete name                            : [JaS] Download - Namu Amida Butsu wa Ai no Uta [LDRip 640x480 x264 AAC].mkv
Format                                   : Matroska
Format version                           : Version 4 / Version 2
File size                                : 870 MiB
Duration                                 : 47 min 25 s
Overall bit rate                         : 2 564 kb/s
Encoded date                             : UTC 2018-07-25 02:02:56
Writing application                      : mkvmerge v24.0.0 ('Beyond The Pale') 64-bit
Writing library                          : libebml v1.3.6 + libmatroska v1.4.9

Video
ID                                       : 1
Format                                   : AVC
Format/Info                              : Advanced Video Codec
Format profile                           : High 10@L5
Format settings, CABAC                   : Yes
Format settings, ReFrames                : 5 frames
Codec ID                                 : V_MPEG4/ISO/AVC
Duration                                 : 47 min 25 s
Bit rate                                 : 2 241 kb/s
Width                                    : 640 pixels
Height                                   : 480 pixels
Display aspect ratio                     : 4:3
Frame rate mode                          : Constant
Frame rate                               : 29.970 (30000/1001) FPS
Color space                              : YUV
Chroma subsampling                       : 4:2:0
Bit depth                                : 10 bits
Scan type                                : Progressive
Bits/(Pixel*Frame)                       : 0.243
Stream size                              : 760 MiB (87%)
Title                                    : LDRip
Writing library                          : x264 core 148 r2597M e86f3a1 (DJATOM's build)
Encoding settings                        : cabac=1 / ref=5 / deblock=1:1:-2 / analyse=0x3:0x113 / me=umh / subme=9 / psy=1 / fade_compensate=0.00 / psy_rd=1.00:0.00 / mixed_ref=1 / me_range=32 / chroma_me=1 / trellis=2 / 8x8dct=1 / cqm=0 / deadzone=21,11 / fast_pskip=1 / chroma_qp_offset=-2 / threads=12 / lookahead_threads=1 / sliced_threads=0 / nr=0 / decimate=1 / interlaced=0 / bluray_compat=0 / constrained_intra=0 / bframes=6 / b_pyramid=2 / b_adapt=2 / b_bias=0 / direct=1 / weightb=1 / open_gop=0 / weightp=2 / keyint=250 / keyint_min=25 / scenecut=40 / intra_refresh=0 / rc=crf / mbtree=0 / crf=14.0000 / qcomp=0.72 / qpmin=0 / qpmax=81 / qpstep=4 / ip_ratio=1.40 / pb_ratio=1.30 / aq=1:0.85
Language                                 : Japanese
Default                                  : Yes
Forced                                   : No
Color range                              : Limited
Color primaries                          : BT.601 NTSC
Transfer characteristics                 : BT.601
Matrix coefficients                      : BT.601

Audio
ID                                       : 2
Format                                   : AAC
Format/Info                              : Advanced Audio Codec
Format profile                           : LC
Codec ID                                 : A_AAC
Duration                                 : 47 min 25 s
Bit rate                                 : 320 kb/s
Channel(s)                               : 2 channels
Channel positions                        : Front: L R
Sampling rate                            : 44.1 kHz
Frame rate                               : 43.066 FPS (1024 spf)
Compression mode                         : Lossy
Stream size                              : 109 MiB (12%)
Title                                    : Audio from LD
Language                                 : Japanese
Default                                  : Yes
Forced                                   : No

Text
ID                                       : 3
Format                                   : ASS
Codec ID                                 : S_TEXT/ASS
Codec ID/Info                            : Advanced Sub Station Alpha
Duration                                 : 44 min 14 s
Bit rate                                 : 65 b/s
Count of elements                        : 363
Compression mode                         : Lossless
Stream size                              : 21.1 KiB (0%)
Title                                    : English [GorimSubs], modified
Language                                 : English
Default                                  : Yes
Forced                                   : No
beta
Anime DDL+NZB mirror
Current Time: 06/12/2019 06:44



About/FAQs