File Size164.3 MB (172,236,638 bytes)
DownloadAnonFiles | ClickNUpload | DropAPK | Free | MultiUp
  • BdUpload
  • DownAce
  • Fichier
  • FileCloud
  • Filerio
  • FilesCdn
  • IndiShare
  • Kbagi
  • Turbobit
  • UpToBox
  • Uppit
| Sendspace | SolidFiles | ZippyShare
HashesCRC32: E5C93E56, MD5: 01D13605EC6CDB830C76F61FB4531781, SHA1: CCADCD3410319DF205E648679E89A3DB74E7D365, SHA256: 5212011C26A941FB90B01F7DD79E38C0839CE34BF6C2F8EBFD927002E2EB5CC1, ED2K: 95A0B3F69DC61D8F0909663F028B2209
Screenshots
screenshotscreenshotscreenshotscreenshotscreenshot
Additional Info
General
Complete name                            : [JacobSwaggedUp] Net-juu no Susume - 11 (BD 1280x720).mp4
Format                                   : MPEG-4
Format profile                           : Base Media
Codec ID                                 : isom (isom/avc1)
File size                                : 164 MiB
Duration                                 : 24 min 11 s
Overall bit rate mode                    : Variable
Overall bit rate                         : 949 kb/s
Encoded date                             : UTC 2020-11-03 16:17:21
Tagged date                              : UTC 2020-11-03 16:17:21

Video
ID                                       : 1
Format                                   : AVC
Format/Info                              : Advanced Video Codec
Format profile                           : High@L4.1
Format settings                          : CABAC / 4 Ref Frames
Format settings, CABAC                   : Yes
Format settings, ReFrames                : 4 frames
Format settings, GOP                     : M=1, N=6
Codec ID                                 : avc1
Codec ID/Info                            : Advanced Video Coding
Duration                                 : 24 min 11 s
Bit rate                                 : 697 kb/s
Maximum bit rate                         : 6 114 kb/s
Width                                    : 1 280 pixels
Height                                   : 720 pixels
Display aspect ratio                     : 16:9
Frame rate mode                          : Constant
Frame rate                               : 23.976 (24000/1001) FPS
Color space                              : YUV
Chroma subsampling                       : 4:2:0
Bit depth                                : 8 bits
Scan type                                : Progressive
Bits/(Pixel*Frame)                       : 0.032
Stream size                              : 121 MiB (73%)
Writing library                          : x264 core 157 r2969 d4099dd
Encoding settings                        : cabac=1 / ref=4 / deblock=1:1:1 / analyse=0x3:0x113 / me=hex / subme=6 / psy=1 / psy_rd=0.40:0.00 / mixed_ref=1 / me_range=16 / chroma_me=1 / trellis=1 / 8x8dct=1 / cqm=0 / deadzone=21,11 / fast_pskip=1 / chroma_qp_offset=-2 / threads=12 / lookahead_threads=2 / sliced_threads=0 / nr=0 / decimate=1 / interlaced=0 / bluray_compat=0 / constrained_intra=0 / bframes=5 / b_pyramid=2 / b_adapt=1 / b_bias=0 / direct=1 / weightb=1 / open_gop=0 / weightp=1 / keyint=240 / keyint_min=23 / scenecut=40 / intra_refresh=0 / rc_lookahead=30 / rc=crf / mbtree=1 / crf=21.0 / qcomp=0.60 / qpmin=0 / qpmax=69 / qpstep=4 / vbv_maxrate=31250 / vbv_bufsize=31250 / crf_max=0.0 / nal_hrd=none / filler=0 / ip_ratio=1.40 / aq=1:0.60
Encoded date                             : UTC 2020-11-03 16:17:21
Tagged date                              : UTC 2020-11-03 16:17:27
Codec configuration box                  : avcC

Audio
ID                                       : 2
Format                                   : AAC LC
Format/Info                              : Advanced Audio Codec Low Complexity
Codec ID                                 : mp4a-40-2
Duration                                 : 24 min 11 s
Bit rate mode                            : Variable
Bit rate                                 : 248 kb/s
Maximum bit rate                         : 381 kb/s
Channel(s)                               : 2 channels
Channel layout                           : L R
Sampling rate                            : 48.0 kHz
Frame rate                               : 46.875 FPS (1024 SPF)
Compression mode                         : Lossy
Stream size                              : 43.0 MiB (26%)
Encoded date                             : UTC 2020-11-03 16:08:43
Tagged date                              : UTC 2020-11-03 16:17:27

Menu
00:00:00.000                             : OP
00:01:31.008                             : Part A
00:11:48.917                             : Part B
00:22:40.568                             : ED

Other Files in this Torrent
[JacobSwaggedUp] Net-juu no Susume - 11 (BD 1280x720).mp4
beta
Anime DDL+NZB mirror
Current Time: 24/05/2024 22:47



About/FAQs

Discord