File Size237.7 MB (249,274,608 bytes)
DownloadGo4Up | Jheberg | MultiUp | OpenLoad | Sendspace | SolidFiles | UsersCloud
Encrypted DownloadDirect
Password:
HashesCRC32: 8CEB8EE6, MD5: E899060BF453165A4B47E1B0310A38FF, SHA1: 119B27DA6B2889B2B2692C2C82F22D627F25F5F7, SHA256: 0981EA1CEECF2651A502EF73CD45BD905766E3A3C81593D33065DB1EE875C00C, ED2K: 987020181F44A79CD544F3E014BCF426
Screenshots
screenshotscreenshotscreenshotscreenshotscreenshot
Additional Info
General
Complete name                            : [JacobSwaggedUp] Bakuman. - 01 (BD 1280x720).mp4
Format                                   : MPEG-4
Format profile                           : Base Media
Codec ID                                 : isom (isom/avc1/iso6)
File size                                : 238 MiB
Duration                                 : 24 min 41 s
Overall bit rate mode                    : Variable
Overall bit rate                         : 1 346 kb/s
Encoded date                             : UTC 2017-01-17 00:29:50
Tagged date                              : UTC 2017-01-17 00:29:50

Video
ID                                       : 1
Format                                   : AVC
Format/Info                              : Advanced Video Codec
Format profile                           : High@L3.1
Format settings, CABAC                   : Yes
Format settings, ReFrames                : 4 frames
Codec ID                                 : avc1
Codec ID/Info                            : Advanced Video Coding
Duration                                 : 24 min 41 s
Bit rate                                 : 1 189 kb/s
Maximum bit rate                         : 7 193 kb/s
Width                                    : 1 280 pixels
Height                                   : 720 pixels
Display aspect ratio                     : 16:9
Frame rate mode                          : Constant
Frame rate                               : 23.976 (24000/1001) FPS
Color space                              : YUV
Chroma subsampling                       : 4:2:0
Bit depth                                : 8 bits
Scan type                                : Progressive
Bits/(Pixel*Frame)                       : 0.054
Stream size                              : 210 MiB (88%)
Writing library                          : x264 core 148 r2638 7599210
Encoding settings                        : cabac=1 / ref=2 / deblock=1:0:0 / analyse=0x3:0x113 / me=hex / subme=6 / psy=1 / psy_rd=1.00:0.00 / mixed_ref=1 / me_range=16 / chroma_me=1 / trellis=1 / 8x8dct=1 / cqm=0 / deadzone=21,11 / fast_pskip=1 / chroma_qp_offset=-2 / threads=12 / lookahead_threads=2 / sliced_threads=0 / nr=0 / decimate=1 / interlaced=0 / bluray_compat=0 / constrained_intra=0 / bframes=3 / b_pyramid=2 / b_adapt=1 / b_bias=0 / direct=1 / weightb=1 / open_gop=0 / weightp=1 / keyint=240 / keyint_min=23 / scenecut=40 / intra_refresh=0 / rc_lookahead=30 / rc=crf / mbtree=1 / crf=19.0 / qcomp=0.60 / qpmin=0 / qpmax=69 / qpstep=4 / ip_ratio=1.40 / aq=1:1.00
Encoded date                             : UTC 2017-01-17 00:29:50
Tagged date                              : UTC 2017-01-17 00:29:52

Audio
ID                                       : 2
Format                                   : AAC
Format/Info                              : Advanced Audio Codec
Format profile                           : LC
Codec ID                                 : 40
Duration                                 : 24 min 41 s
Bit rate mode                            : Variable
Bit rate                                 : 153 kb/s
Maximum bit rate                         : 214 kb/s
Channel(s)                               : 2 channels
Channel positions                        : Front: L R
Sampling rate                            : 48.0 kHz
Frame rate                               : 46.875 FPS (1024 spf)
Compression mode                         : Lossy
Stream size                              : 27.1 MiB (11%)
Encoded date                             : UTC 2017-01-17 00:23:45
Tagged date                              : UTC 2017-01-17 00:29:52

Menu
00:00:00.000                             : Prelude
00:02:03.665                             : Opening
00:03:26.248                             : Part 1
00:10:40.056                             : Eyecatch
00:10:44.060                             : Part 2
00:22:45.990                             : Ending
00:24:15.996                             : Preview

Other Files in this Torrent
[JacobSwaggedUp] Bakuman. - 01 (BD 1280x720).mp4
beta
Anime DDL+NZB mirror
Current Time: 17/07/2019 09:36



About/FAQs