File Size559.0 MB (586,117,528 bytes)
DownloadClickNUpload | DailyUploads | DownloadGG | GoFile | KrakenFiles | MdiaLoad | Uppit
MultiUp: Part1
  • BdUpload
  • DownAce
  • Fichier
  • FileCloud
  • Filerio
  • FilesCdn
  • IndiShare
  • Kbagi
  • Turbobit
  • UpToBox
  • Uppit
, Part2
  • BdUpload
  • DownAce
  • Fichier
  • FileCloud
  • Filerio
  • FilesCdn
  • IndiShare
  • Kbagi
  • Turbobit
  • UpToBox
  • Uppit
HashesCRC32: 378D7D9B, MD5: 8B276397EFF28F8715F7A24694823ABF, SHA1: D9AEF105EE26A011EEE5597EB13821222C0A6326, SHA256: 3CABE32C43E12152B6E1D31C7CC4240650A1A64F0B09B8A3CF5883B0159A3575, ED2K: 6D71A9B64DB431C6EFE19BB33D26B290
Screenshots
screenshotscreenshotscreenshotscreenshotscreenshot
SubtitlesAll Attachments | English [eng, ASS], fre [ASS]
Additional Info
General
Unique ID                                : 295689106519358589859082072757107656739 (0xDE73A683B9C47CBDBF08D5F2BDCF8823)
Complete name                            : [Ironclad] Mahou Shoujo ni Akogarete - 13 [10bit.1080p.AV1].mkv
Format                                   : Matroska
Format version                           : Version 4
File size                                : 559 MiB
Duration                                 : 23 min 42 s
Overall bit rate                         : 3 296 kb/s
Frame rate                               : 24.000 FPS
Movie name                               : Gushing over Magical Girls S01E13 UNCENSORED VOSTFR 1080p WEB x264 AAC -Tsundere-Raws (ADN)
Encoded date                             : 2024-03-27 23:07:21 UTC
Writing application                      : mkvmerge v83.0 ('Circle Of Friends') 64-bit
Writing library                          : libebml v1.4.5 + libmatroska v1.7.1
Attachments                              : CHILLER.TTF / FirstGrader.ttf / SQR721KN.TTF / SqueakyChalkSound.ttf / STAC222N.TTF / Stacc222.ttf / staccato 555 bt.ttf / Swis721_BT_Bold.ttf / timesbd_0.ttf / timesbd_1.ttf / VAGRoundedBT.ttf / trebuc.ttf / trebucit.ttf / trebucbi.ttf / trebucbd.ttf
Encoder settings                         : rav1e 0.7.1: "--quantizer 25-135 --tiles 8 -s 2"
Film grain synthesis settings            : grav1synth: "diff"
Target SSIMULACRA 2                      : Mean: 80, 5th percentile: 70
Vapoursynth filters                      : Denoise with vs-nlm-cuda: "d=2, a=[3,2,2], h=0.3, channels=YUV", dering with vs-dehalo: "planes=[0,1,2]", deband with soifunc, dither with vs-tools

Video
ID                                       : 1
Format                                   : AV1
Format/Info                              : AOMedia Video 1
Format profile                           : Main
Codec ID                                 : V_AV1
Duration                                 : 23 min 42 s
Bit rate                                 : 3 155 kb/s
Width                                    : 1 920 pixels
Height                                   : 1 080 pixels
Display aspect ratio                     : 16:9
Frame rate mode                          : Constant
Frame rate                               : 24.000 FPS
Color space                              : YUV
Chroma subsampling                       : 4:2:0
Bit depth                                : 10 bits
Bits/(Pixel*Frame)                       : 0.063
Stream size                              : 535 MiB (96%)
Title                                    : Erai-raws
Default                                  : Yes
Forced                                   : No
Color range                              : Limited
Color primaries                          : BT.709
Transfer characteristics                 : BT.709
Matrix coefficients                      : BT.709

Audio
ID                                       : 2
Format                                   : AAC LC
Format/Info                              : Advanced Audio Codec Low Complexity
Codec ID                                 : A_AAC-2
Duration                                 : 23 min 42 s
Bit rate                                 : 128 kb/s
Channel(s)                               : 2 channels
Channel layout                           : L R
Sampling rate                            : 48.0 kHz
Frame rate                               : 46.875 FPS (1024 SPF)
Compression mode                         : Lossy
Stream size                              : 21.8 MiB (4%)
Language                                 : Japanese
Default                                  : Yes
Forced                                   : No

Text #1
ID                                       : 3
Format                                   : ASS
Muxing mode                              : zlib
Codec ID                                 : S_TEXT/ASS
Codec ID/Info                            : Advanced Sub Station Alpha
Duration                                 : 23 min 32 s
Bit rate                                 : 95 b/s
Frame rate                               : 0.225 FPS
Count of elements                        : 318
Compression mode                         : Lossless
Stream size                              : 16.5 KiB (0%)
Title                                    : English
Language                                 : English
Default                                  : Yes
Forced                                   : No

Text #2
ID                                       : 4
Format                                   : ASS
Muxing mode                              : zlib
Codec ID                                 : S_TEXT/ASS
Codec ID/Info                            : Advanced Sub Station Alpha
Duration                                 : 23 min 35 s
Bit rate                                 : 96 b/s
Frame rate                               : 0.221 FPS
Count of elements                        : 313
Compression mode                         : Lossless
Stream size                              : 16.6 KiB (0%)
Language                                 : French
Default                                  : Yes
Forced                                   : No
beta
Anime DDL+NZB mirror
Current Time: 17/06/2024 23:12



About/FAQs

Discord