File Size489.9 MB (513,698,712 bytes)
DownloadClickNUpload | DailyUploads | DownloadGG | GoFile | KrakenFiles | MdiaLoad | MultiUp
  • BdUpload
  • DownAce
  • Fichier
  • FileCloud
  • Filerio
  • FilesCdn
  • IndiShare
  • Kbagi
  • Turbobit
  • UpToBox
  • Uppit
| Uppit
HashesCRC32: 7820DBFE, MD5: 2DA417A495136BB9EDCE146C93816E20, SHA1: EA6C65EB4C0F9265B173FF1B9CE8A1597270F052, SHA256: 1C593BB3B2E9F1EBF76776A177DD7FDF34133BF42BB24A14A735B0FD8CCC018A, ED2K: 5199254738A3D870A133B511E6DC79F4
Screenshots
screenshotscreenshotscreenshotscreenshotscreenshot
SubtitlesAll Attachments | English (United States) [Full] [eng, ASS], fre [ASS]
Additional Info
General
Unique ID                                : 138219749564680241471037407532338131652 (0x67FC27CC2D1E484E78C535B16A8C32C4)
Complete name                            : [Ironclad] Mahou Shoujo ni Akogarete - 11 [10bit.1080p.AV1].mkv
Format                                   : Matroska
Format version                           : Version 4
File size                                : 490 MiB
Duration                                 : 23 min 41 s
Overall bit rate                         : 2 891 kb/s
Frame rate                               : 24.000 FPS
Movie name                               : Gushing Over Magical Girls S01E11 Gushing Over World Domination!
Encoded date                             : 2024-03-14 04:35:44 UTC
Writing application                      : mkvmerge v83.0 ('Circle Of Friends') 64-bit
Writing library                          : libebml v1.4.5 + libmatroska v1.7.1 / Lavf60.13.100
Attachments                              : Sw721Bd.ttf / vag-rounded-bt.ttf / FirstGrader Regular.ttf / trebuc.ttf / trebucit.ttf / trebucbi.ttf / trebucbd.ttf
Encoder settings                         : rav1e 0.7.1: "--quantizer 20-110 --tiles 8 -s 2"
Film grain synthesis settings            : grav1synth: "diff"
Target SSIMULACRA 2                      : Mean: 80, 5th percentile: 70
Vapoursynth filters                      : Denoise with vs-nlm-cuda: "d=2, a=[3,2,2], h=0.3, channels=YUV", dering with vs-dehalo: "planes=[0,1,2]", deband with soifunc, dither with vs-tools

Video
ID                                       : 1
Format                                   : AV1
Format/Info                              : AOMedia Video 1
Format profile                           : Main
Codec ID                                 : V_AV1
Duration                                 : 23 min 41 s
Bit rate                                 : 2 752 kb/s
Width                                    : 1 920 pixels
Height                                   : 1 080 pixels
Display aspect ratio                     : 16:9
Frame rate mode                          : Constant
Frame rate                               : 24.000 FPS
Color space                              : YUV
Chroma subsampling                       : 4:2:0
Bit depth                                : 10 bits
Bits/(Pixel*Frame)                       : 0.055
Stream size                              : 466 MiB (95%)
Title                                    : Tsundere-raws
Default                                  : No
Forced                                   : No
Color range                              : Limited
Color primaries                          : BT.709
Transfer characteristics                 : BT.709
Matrix coefficients                      : BT.709

Audio
ID                                       : 2
Format                                   : AAC LC
Format/Info                              : Advanced Audio Codec Low Complexity
Muxing mode                              : zlib
Codec ID                                 : A_AAC-2
Duration                                 : 23 min 41 s
Bit rate                                 : 129 kb/s
Channel(s)                               : 2 channels
Channel layout                           : L R
Sampling rate                            : 48.0 kHz
Frame rate                               : 46.875 FPS (1024 SPF)
Compression mode                         : Lossy
Stream size                              : 21.8 MiB (4%)
Title                                    : Japanese
Language                                 : Japanese
Default                                  : Yes
Forced                                   : No

Text #1
ID                                       : 3
Format                                   : ASS
Muxing mode                              : zlib
Codec ID                                 : S_TEXT/ASS
Codec ID/Info                            : Advanced Sub Station Alpha
Duration                                 : 23 min 25 s
Bit rate                                 : 79 b/s
Frame rate                               : 0.204 FPS
Count of elements                        : 287
Compression mode                         : Lossless
Stream size                              : 13.6 KiB (0%)
Title                                    : English (United States) [Full]
Language                                 : English (US)
Default                                  : Yes
Forced                                   : No

Text #2
ID                                       : 4
Format                                   : ASS
Muxing mode                              : zlib
Codec ID                                 : S_TEXT/ASS
Codec ID/Info                            : Advanced Sub Station Alpha
Duration                                 : 23 min 25 s
Bit rate                                 : 95 b/s
Frame rate                               : 0.242 FPS
Count of elements                        : 340
Compression mode                         : Lossless
Stream size                              : 16.3 KiB (0%)
Language                                 : French
Default                                  : Yes
Forced                                   : No
beta
Anime DDL+NZB mirror
Current Time: 14/06/2024 19:21



About/FAQs

Discord