File Size400.2 MB (419,660,120 bytes)
DownloadGo4Up | Jheberg | MultiUp | SolidFiles | TusFiles | UsersFiles
Sendspace: Part1, Part2
ShareBeast: Part1, Part2, Part3
HashesCRC32: 8F544C85, MD5: F23BD710BF2C96B27E267B969ADBFB8F, SHA1: 0AE076405FC1865A10B95F7A601105A889A0F072, ED2K: FBF5C376393BA24195C875FD325F8936
Screenshots
screenshotscreenshotscreenshotscreenshotscreenshot
Additional Info
General
Complete name                            : [iPUNISHER] Tokyo Ghoul - 08 [BD 720 AAC].mp4
Format                                   : MPEG-4
Format profile                           : Base Media / Version 2
Codec ID                                 : mp42
File size                                : 400 MiB
Duration                                 : 24mn 6s
Overall bit rate mode                    : Variable
Overall bit rate                         : 2 320 Kbps
Movie name                               : [iPUNISHER] Tokyo Ghoul - Episode 08 "Circular"
Encoded date                             : UTC 2014-12-05 23:18:08
Tagged date                              : UTC 2014-12-06 01:53:38
Writing application                      : HandBrake 0.9.9 2013052900

Video
ID                                       : 1
Format                                   : AVC
Format/Info                              : Advanced Video Codec
Format profile                           : High@L5.0
Format settings, CABAC                   : Yes
Format settings, ReFrames                : 5 frames
Codec ID                                 : avc1
Codec ID/Info                            : Advanced Video Coding
Duration                                 : 24mn 6s
Bit rate                                 : 2 059 Kbps
Width                                    : 1 280 pixels
Height                                   : 720 pixels
Display aspect ratio                     : 16:9
Frame rate mode                          : Variable
Frame rate                               : 23.976 fps
Minimum frame rate                       : 23.974 fps
Maximum frame rate                       : 90 000.000 fps
Color space                              : YUV
Chroma subsampling                       : 4:2:0
Bit depth                                : 8 bits
Scan type                                : Progressive
Bits/(Pixel*Frame)                       : 0.093
Stream size                              : 355 MiB (89%)
Writing library                          : x264 core 130 r2273 b3065e6
Encoding settings                        : cabac=1 / ref=5 / deblock=1:0:0 / analyse=0x3:0x113 / me=umh / subme=8 / psy=1 / psy_rd=1.00:0.00 / mixed_ref=1 / me_range=16 / chroma_me=1 / trellis=1 / 8x8dct=1 / cqm=0 / deadzone=21,11 / fast_pskip=1 / chroma_qp_offset=-2 / threads=3 / lookahead_threads=1 / sliced_threads=0 / nr=0 / decimate=1 / interlaced=0 / bluray_compat=0 / constrained_intra=0 / bframes=3 / b_pyramid=2 / b_adapt=2 / b_bias=0 / direct=3 / weightb=1 / open_gop=0 / weightp=2 / keyint=240 / keyint_min=24 / scenecut=40 / intra_refresh=0 / rc_lookahead=50 / rc=crf / mbtree=1 / crf=18.0 / qcomp=0.60 / qpmin=0 / qpmax=69 / qpstep=4 / vbv_maxrate=168750 / vbv_bufsize=168750 / crf_max=0.0 / nal_hrd=none / ip_ratio=1.40 / aq=1:1.00
Encoded date                             : UTC 2014-12-05 23:18:08
Tagged date                              : UTC 2014-12-06 01:53:37
Color primaries                          : BT.709
Transfer characteristics                 : BT.709
Matrix coefficients                      : BT.709

Audio
ID                                       : 2
Format                                   : AAC
Format/Info                              : Advanced Audio Codec
Format profile                           : LC
Codec ID                                 : 40
Duration                                 : 24mn 6s
Bit rate mode                            : Variable
Bit rate                                 : 256 Kbps
Maximum bit rate                         : 379 Kbps
Channel(s)                               : 2 channels
Channel positions                        : Front: L R
Sampling rate                            : 44.1 KHz
Compression mode                         : Lossy
Stream size                              : 44.1 MiB (11%)
Encoded date                             : UTC 2014-12-05 23:18:08
Tagged date                              : UTC 2014-12-06 01:53:33

Menu
ID                                       : 3
Codec ID                                 : text
Duration                                 : 24mn 6s
Encoded date                             : UTC 2014-12-05 23:18:08
Tagged date                              : UTC 2014-12-06 01:53:37
00:00:00.000                             : Prologue - Episode 08 "Circular"
00:01:15.074                             : Opening Theme - ("Unravel" by TK from Ling Tosite Sigure)
00:02:44.998                             : Part A "Circular"
00:11:17.927                             : Part B "Circular"
00:22:05.532                             : Ending Theme - ("Saints" by People In The Box)
00:23:35.956                             : Preview - Next Time "Birdcage"
Bit rate mode                            : VBR

Other Files in this Torrent
[iPUNISHER] Tokyo Ghoul - 08 [BD 720 AAC].mp4
beta
Anime DDL+NZB mirror
Current Time: 12/11/2019 02:55



About/FAQs