File Size314.2 MB (329,506,790 bytes)
DownloadAnonFiles | ClickNUpload | DropAPK | Free | MultiUp
  • BdUpload
  • DownAce
  • Fichier
  • FileCloud
  • Filerio
  • FilesCdn
  • IndiShare
  • Kbagi
  • Turbobit
  • UpToBox
  • Uppit
| SolidFiles | ZippyShare
HashesCRC32: 5652B6E0, MD5: 0C0BC9DA18CE8B2CF41212EBDB65F64E, SHA1: 6567947B2C4147A21E4492C29B1FF3E621A7FC04, SHA256: 857CBCBBE63ED260E06E1834CAA68717E79BA6D5D03224AC85AC56F5AE8C1FB8, ED2K: D7F435F23AEEAF39CB7809AFB1F9F263
Screenshots
screenshotscreenshot
SubtitlesAll Attachments | eng [PGS]
Additional Info
General
Unique ID                                : 233275758979647390240999769523315225051 (0xAF7F46E6511D2CA5398D435852F731DB)
Complete name                            : Inuyasha The Final Act Opening [BDremux 1080p].mkv
Format                                   : Matroska
Format version                           : Version 4
File size                                : 314 MiB
Duration                                 : 1 min 35 s
Overall bit rate mode                    : Variable
Overall bit rate                         : 27.5 Mb/s
Encoded date                             : UTC 2021-03-08 20:36:18
Writing application                      : mkvmerge v51.0.0 ('I Wish') 64-bit
Writing library                          : libebml v1.4.0 + libmatroska v1.6.2 / Lavf58.45.100

Video
ID                                       : 1
Format                                   : AVC
Format/Info                              : Advanced Video Codec
Format profile                           : High@L4.1
Format settings                          : CABAC / 4 Ref Frames
Format settings, CABAC                   : Yes
Format settings, ReFrames                : 4 frames
Codec ID                                 : V_MPEG4/ISO/AVC
Duration                                 : 1 min 35 s
Bit rate mode                            : Variable
Bit rate                                 : 25.7 Mb/s
Maximum bit rate                         : 35.0 Mb/s
Width                                    : 1 920 pixels
Height                                   : 1 080 pixels
Display aspect ratio                     : 16:9
Frame rate mode                          : Constant
Frame rate                               : 23.976 (23976/1000) FPS
Original frame rate                      : 23.976 (24000/1001) FPS
Standard                                 : NTSC
Color space                              : YUV
Chroma subsampling                       : 4:2:0
Bit depth                                : 8 bits
Scan type                                : Progressive
Bits/(Pixel*Frame)                       : 0.516
Stream size                              : 294 MiB (93%)
Language                                 : Japanese
Default                                  : Yes
Forced                                   : No
Color range                              : Limited
Color primaries                          : BT.709
Transfer characteristics                 : BT.709
Matrix coefficients                      : BT.709

Audio
ID                                       : 2
Format                                   : DTS XLL
Format/Info                              : Digital Theater Systems
Commercial name                          : DTS-HD Master Audio
Codec ID                                 : A_DTS
Duration                                 : 1 min 35 s
Bit rate mode                            : Variable
Bit rate                                 : 1 794 kb/s
Channel(s)                               : 2 channels
Channel layout                           : L R
Sampling rate                            : 48.0 kHz
Frame rate                               : 93.750 FPS (512 SPF)
Bit depth                                : 16 bits
Compression mode                         : Lossless
Stream size                              : 20.5 MiB (7%)
Language                                 : Japanese
Default                                  : Yes
Forced                                   : No

Text
ID                                       : 3
Format                                   : PGS
Muxing mode                              : zlib
Codec ID                                 : S_HDMV/PGS
Codec ID/Info                            : Picture based subtitle format used on BDs/HD-DVDs
Duration                                 : 1 min 7 s
Bit rate                                 : 27.0 kb/s
Count of elements                        : 22
Stream size                              : 222 KiB (0%)
Language                                 : English
Default                                  : No
Forced                                   : No
beta
Anime DDL+NZB mirror
Current Time: 06/12/2021 14:32



About/FAQs

Discord