[Inka-Subs] Jungle Emperor - Episode 14.mkv


File Size321.4 MB (337,001,826 bytes)
DownloadAnonFiles | ClickNUpload | DropAPK | Free | MultiUp
  • BdUpload
  • DownAce
  • Fichier
  • FileCloud
  • Filerio
  • FilesCdn
  • IndiShare
  • Kbagi
  • Turbobit
  • UpToBox
  • Uppit
| SolidFiles | ZippyShare
Sendspace: Part1, Part2
HashesCRC32: FFDF7F03, MD5: B348A52180668520E00C580000E81705, SHA1: 99702CE9EF0A37D079046F05D8CC1C77675B9EE6, SHA256: F95A6A3ED10AB41EB0622C19D362271EA98560B88C0940A94164ADA53FAC172B, ED2K: 900F7BF1AA1D8A7F39C7AF8C9B4FBB90
Screenshots
screenshotscreenshotscreenshotscreenshotscreenshot
SubtitlesAll Attachments | eng [ASS]
Additional Info
General
Unique ID                                : 323634745501185796254186526765607171167 (0xF379C8E4C0AA15A0B3AEDC2ED4D6345F)
Complete name                            : [Inka-Subs] Jungle Emperor - Episode 14.mkv
Format                                   : Matroska
Format version                           : Version 4
File size                                : 321 MiB
Duration                                 : 24 min 40 s
Overall bit rate                         : 1 821 kb/s
Encoded date                             : UTC 2020-05-01 20:53:26
Writing application                      : mkvmerge v35.0.0 ('All The Love In The World') 32-bit
Writing library                          : libebml v1.3.9 + libmatroska v1.5.2
Attachments                              : arialbd.ttf / arialbi.ttf / candarab.ttf / candaraz.ttf / PREHISTORICCAVEMAN-PRJ7.TTF / segoeuib.ttf / arialbd.ttf / arialbi.ttf / candarab.ttf / candaraz.ttf / PREHISTORICCAVEMAN-PRJ7.TTF / segoeuib.ttf

Video
ID                                       : 1
Format                                   : AVC
Format/Info                              : Advanced Video Codec
Format profile                           : High 10@L4.1
Format settings                          : CABAC / 16 Ref Frames
Format settings, CABAC                   : Yes
Format settings, ReFrames                : 16 frames
Codec ID                                 : V_MPEG4/ISO/AVC
Duration                                 : 24 min 40 s
Bit rate                                 : 1 405 kb/s
Width                                    : 640 pixels
Height                                   : 480 pixels
Display aspect ratio                     : 4:3
Frame rate mode                          : Constant
Frame rate                               : 23.976 (24000/1001) FPS
Color space                              : YUV
Chroma subsampling                       : 4:2:0
Bit depth                                : 10 bits
Scan type                                : Progressive
Bits/(Pixel*Frame)                       : 0.191
Stream size                              : 248 MiB (77%)
Writing library                          : x264 core 152 r2851 ba24899
Encoding settings                        : cabac=1 / ref=16 / deblock=1:1:1 / analyse=0x3:0x133 / me=umh / subme=11 / psy=1 / psy_rd=0.80:0.15 / mixed_ref=1 / me_range=32 / chroma_me=1 / trellis=2 / 8x8dct=1 / cqm=0 / deadzone=21,11 / fast_pskip=0 / chroma_qp_offset=-3 / threads=1 / lookahead_threads=1 / sliced_threads=0 / nr=0 / decimate=0 / interlaced=0 / bluray_compat=0 / constrained_intra=0 / bframes=16 / b_pyramid=2 / b_adapt=2 / b_bias=0 / direct=3 / weightb=1 / open_gop=0 / weightp=2 / keyint=250 / keyint_min=23 / scenecut=40 / intra_refresh=0 / rc_lookahead=80 / rc=crf / mbtree=1 / crf=17.0 / qcomp=0.70 / qpmin=0 / qpmax=81 / qpstep=4 / ip_ratio=1.40 / aq=3:0.80
Language                                 : Japanese
Default                                  : Yes
Forced                                   : No

Audio
ID                                       : 2
Format                                   : AC-3
Format/Info                              : Audio Coding 3
Commercial name                          : Dolby Digital
Codec ID                                 : A_AC3
Duration                                 : 24 min 39 s
Bit rate mode                            : Constant
Bit rate                                 : 384 kb/s
Channel(s)                               : 2 channels
Channel layout                           : L R
Sampling rate                            : 48.0 kHz
Frame rate                               : 31.250 FPS (1536 SPF)
Bit depth                                : 16 bits
Compression mode                         : Lossy
Stream size                              : 67.7 MiB (21%)
Language                                 : Japanese
Service kind                             : Complete Main
Default                                  : Yes
Forced                                   : No

Text
ID                                       : 3
Format                                   : ASS
Codec ID                                 : S_TEXT/ASS
Codec ID/Info                            : Advanced Sub Station Alpha
Duration                                 : 24 min 30 s
Bit rate                                 : 103 b/s
Count of elements                        : 271
Compression mode                         : Lossless
Stream size                              : 18.5 KiB (0%)
Language                                 : English
Default                                  : Yes
Forced                                   : No

Menu
00:00:00.000                             : en:Chapter 01
00:01:11.071                             : en:Chapter 02
00:12:17.536                             : en:Chapter 03
00:23:02.381                             : en:Chapter 04
00:23:22.434                             : en:Chapter 05
beta
Anime DDL+NZB mirror
Current Time: 29/09/2020 23:51



About/FAQs