[Inka-Subs] Akuma-kun (1989) - Episode 02.mkv


File Size665.5 MB (697,855,870 bytes)
DownloadClickNUpload | DownloadGG | GoFile | KrakenFiles | MdiaLoad
MultiUp: Part1
  • BdUpload
  • DownAce
  • Fichier
  • FileCloud
  • Filerio
  • FilesCdn
  • IndiShare
  • Kbagi
  • Turbobit
  • UpToBox
  • Uppit
, Part2
  • BdUpload
  • DownAce
  • Fichier
  • FileCloud
  • Filerio
  • FilesCdn
  • IndiShare
  • Kbagi
  • Turbobit
  • UpToBox
  • Uppit
HashesCRC32: 4CE9636E, MD5: 8CF967C2A8E4FC2DAC5F72D3AE5A1E0A, SHA1: F2E55306D511D3EC6496CB6BA468A11C1757B9C8, SHA256: 9A8E62F8CBDC422A212F68DC3B62E3F3AD623FF9329005AC393196BA54C4B010, ED2K: BAAF38F57019BF70A4F9DBCB4AF1AB96
Screenshots
screenshotscreenshotscreenshotscreenshotscreenshot
SubtitlesAll Attachments | eng [ASS]
Additional Info
General
Unique ID                                : 104666934727944743198372986921194322663 (0x4EBE1E4E04E51904CD5D1A3F915F7AE7)
Complete name                            : [Inka-Subs] Akuma-kun (1989) - Episode 02.mkv
Format                                   : Matroska
Format version                           : Version 4
File size                                : 666 MiB
Duration                                 : 24 min 8 s
Overall bit rate                         : 3 855 kb/s
Encoded date                             : UTC 2023-07-28 11:40:21
Writing application                      : mkvmerge v65.0.0 ('Too Much') 64-bit
Writing library                          : libebml v1.4.2 + libmatroska v1.6.4
Attachments                              : A-OTF-Jun501Pro-Bold.otf / Basic Comical Regular NC.ttf / Maggie Moo.otf

Video
ID                                       : 1
Format                                   : AVC
Format/Info                              : Advanced Video Codec
Format profile                           : High 10@L5.1
Format settings                          : CABAC / 16 Ref Frames
Format settings, CABAC                   : Yes
Format settings, Reference frames        : 16 frames
Codec ID                                 : V_MPEG4/ISO/AVC
Duration                                 : 24 min 8 s
Bit rate                                 : 3 379 kb/s
Width                                    : 768 pixels
Height                                   : 576 pixels
Display aspect ratio                     : 4:3
Frame rate mode                          : Constant
Frame rate                               : 23.976 (24000/1001) FPS
Color space                              : YUV
Chroma subsampling                       : 4:2:0
Bit depth                                : 10 bits
Scan type                                : Progressive
Bits/(Pixel*Frame)                       : 0.319
Stream size                              : 583 MiB (88%)
Writing library                          : x264 core 164 r3085+55M 938b6d0 t_mod_New [(8 & 10)-bit@all X86_64]
Encoding settings                        : cabac=1 / ref=16 / deblock=1:-2:-2 / analyse=0x3:0x133 / me=umh / subme=11 / psy=1 / fade_compensate=0.00 / psy_rd=0.80:0.05 / mixed_ref=1 / me_range=32 / chroma_me=1 / trellis=2 / 8x8dct=1 / cqm=0 / deadzone=21,11 / fast_pskip=0 / chroma_qp_offset=-3 / threads=6 / lookahead_threads=1 / sliced_threads=0 / nr=0 / decimate=0 / interlaced=0 / bluray_compat=0 / constrained_intra=0 / fgo=0 / bframes=16 / b_pyramid=2 / b_adapt=2 / b_bias=0 / direct=3 / weightb=1 / open_gop=0 / weightp=2 / keyint=250 / keyint_min=23 / scenecut=40 / intra_refresh=0 / rc=crf / mbtree=0 / crf=17.0000 / qcomp=0.72 / qpmin=0:0:0 / qpmax=81:81:81 / qpstep=4 / ip_ratio=1.40 / pb_ratio=1.30 / aq=3:0.80 / aq-sensitivity=10.00 / aq-factor=1.00:1.00:1.00 / aq2=0 / aq3=0
Language                                 : Japanese
Default                                  : Yes
Forced                                   : No

Audio
ID                                       : 2
ID in the original source medium         : 189 (0xBD)128 (0x80)
Format                                   : AC-3
Format/Info                              : Audio Coding 3
Commercial name                          : Dolby Digital
Codec ID                                 : A_AC3
Duration                                 : 24 min 8 s
Bit rate mode                            : Constant
Bit rate                                 : 448 kb/s
Channel(s)                               : 2 channels
Channel layout                           : L R
Sampling rate                            : 48.0 kHz
Frame rate                               : 31.250 FPS (1536 SPF)
Compression mode                         : Lossy
Delay relative to video                  : 13 ms
Stream size                              : 77.4 MiB (12%)
Title                                    : Stereo
Language                                 : Japanese
Service kind                             : Complete Main
Default                                  : Yes
Forced                                   : No
Original source medium                   : DVD-Video

Text
ID                                       : 3
Format                                   : ASS
Codec ID                                 : S_TEXT/ASS
Codec ID/Info                            : Advanced Sub Station Alpha
Duration                                 : 23 min 59 s
Bit rate                                 : 174 b/s
Count of elements                        : 491
Compression mode                         : Lossless
Stream size                              : 30.6 KiB (0%)
Language                                 : English
Default                                  : Yes
Forced                                   : No

Menu
00:00:00.000                             : en:Chapter 01
00:01:30.657                             : en:Chapter 02
00:11:38.698                             : en:Chapter 03
00:22:27.312                             : en:Chapter 04
00:23:37.916                             : en:Chapter 05
beta
Anime DDL+NZB mirror
Current Time: 13/07/2024 14:06



About/FAQs

Discord