File Size631.7 MB (662,346,064 bytes)
DownloadClickNUpload | DownloadGG | KrakenFiles
MultiUp: Part1
  • BdUpload
  • DownAce
  • Fichier
  • FileCloud
  • Filerio
  • FilesCdn
  • IndiShare
  • Kbagi
  • Turbobit
  • UpToBox
  • Uppit
, Part2
  • BdUpload
  • DownAce
  • Fichier
  • FileCloud
  • Filerio
  • FilesCdn
  • IndiShare
  • Kbagi
  • Turbobit
  • UpToBox
  • Uppit

ZippyShare: Part1, Part2
HashesCRC32: 932942E5, MD5: 711BF3C4E2FCE240750CEFE74D7AADB8, SHA1: F7592F7CC5F5D725E406852613E8174697C95108, SHA256: E9CF1A1AF7F147DAE66BA1458813EDEC60DD56B686C001102AA2322CD3E5D8FF, ED2K: 24840D5F9E52B442B0DD023784E1BA2C
Screenshots
screenshotscreenshotscreenshotscreenshotscreenshot
SubtitlesAll Attachments | Unlocalized [eng, ASS], Localized [eng, ASS]
Additional Info
General
Unique ID                                : 336562736337577335065935840129147248045 (0xFD33A00D9D605DBB8070E560BD249DAD)
Complete name                            : [The Impatient Miyafuji Kantai] Luminous Witches - 07 [1080p][932942E5].mkv
Format                                   : Matroska
Format version                           : Version 4
File size                                : 632 MiB
Duration                                 : 23 min 40 s
Overall bit rate                         : 3 731 kb/s
Movie name                               : [The Impatient Miyafuji Kantai]  Luminous Witches - 07 [1080p]
Encoded date                             : UTC 2023-01-25 00:19:18
Writing application                      : mkvmerge v73.0.0 ('25 or 6 to 4') 64-bit
Writing library                          : libebml v1.4.4 + libmatroska v1.7.1
Attachments                              : Cagliostro Regular.ttf / Crimson-Bold.ttf / FOT-RodinProN-EB.otf / GalSILR.ttf / GandhiSans-Bold.ttf / KGSecondChancesSolid.ttf / Salernomi-J.ttf / BalooChettan2-SemiBold.ttf

Video
ID                                       : 1
Format                                   : AVC
Format/Info                              : Advanced Video Codec
Format profile                           : High 10@L5.1
Format settings                          : CABAC / 16 Ref Frames
Format settings, CABAC                   : Yes
Format settings, Reference frames        : 16 frames
Codec ID                                 : V_MPEG4/ISO/AVC
Duration                                 : 23 min 40 s
Bit rate                                 : 3 422 kb/s
Width                                    : 1 920 pixels
Height                                   : 1 080 pixels
Display aspect ratio                     : 16:9
Frame rate mode                          : Constant
Frame rate                               : 23.976 (24000/1001) FPS
Color space                              : YUV
Chroma subsampling                       : 4:2:0
Bit depth                                : 10 bits
Scan type                                : Progressive
Bits/(Pixel*Frame)                       : 0.069
Stream size                              : 579 MiB (92%)
Writing library                          : x264 core 164 r3065 ae03d92
Encoding settings                        : cabac=1 / ref=16 / deblock=1:-2:-2 / analyse=0x3:0x133 / me=tesa / subme=10 / psy=1 / psy_rd=0.90:0.00 / mixed_ref=1 / me_range=32 / chroma_me=1 / trellis=2 / 8x8dct=1 / cqm=0 / deadzone=21,11 / fast_pskip=0 / chroma_qp_offset=-2 / threads=24 / lookahead_threads=6 / sliced_threads=0 / nr=0 / decimate=0 / interlaced=0 / bluray_compat=0 / constrained_intra=0 / bframes=16 / b_pyramid=2 / b_adapt=2 / b_bias=0 / direct=1 / weightb=1 / open_gop=0 / weightp=2 / keyint=240 / keyint_min=23 / scenecut=40 / intra_refresh=0 / rc_lookahead=60 / rc=crf / mbtree=1 / crf=15.0 / qcomp=0.72 / qpmin=0 / qpmax=81 / qpstep=4 / ip_ratio=1.40 / aq=3:0.95
Language                                 : Japanese
Default                                  : Yes
Forced                                   : No
Color range                              : Limited
Color primaries                          : BT.709
Transfer characteristics                 : BT.709
Matrix coefficients                      : BT.709

Audio
ID                                       : 2
Format                                   : E-AC-3
Format/Info                              : Enhanced AC-3
Commercial name                          : Dolby Digital Plus
Codec ID                                 : A_EAC3
Duration                                 : 23 min 40 s
Bit rate mode                            : Constant
Bit rate                                 : 224 kb/s
Channel(s)                               : 2 channels
Channel layout                           : L R
Sampling rate                            : 48.0 kHz
Frame rate                               : 31.250 FPS (1536 SPF)
Compression mode                         : Lossy
Stream size                              : 37.9 MiB (6%)
Language                                 : Japanese
Service kind                             : Complete Main
Default                                  : Yes
Forced                                   : No

Text #1
ID                                       : 3
Format                                   : ASS
Codec ID                                 : S_TEXT/ASS
Codec ID/Info                            : Advanced Sub Station Alpha
Duration                                 : 23 min 15 s
Bit rate                                 : 28.9 kb/s
Count of elements                        : 11189
Compression mode                         : Lossless
Stream size                              : 4.81 MiB (1%)
Title                                    : Unlocalized
Language                                 : English
Default                                  : Yes
Forced                                   : No

Text #2
ID                                       : 4
Format                                   : ASS
Codec ID                                 : S_TEXT/ASS
Codec ID/Info                            : Advanced Sub Station Alpha
Duration                                 : 23 min 15 s
Bit rate                                 : 22.9 kb/s
Count of elements                        : 7310
Compression mode                         : Lossless
Stream size                              : 3.81 MiB (1%)
Title                                    : Localized
Language                                 : English
Default                                  : No
Forced                                   : No

Menu
00:00:00.000                             : en:Intro
00:00:24.024                             : en:OP
00:01:54.031                             : en:Part A
00:11:38.072                             : en:Eyecatch
00:11:46.080                             : en:Part B
00:22:00.027                             : en:ED
00:23:30.034                             : en:Preview
beta
Anime DDL+NZB mirror
Current Time: 23/05/2024 06:03



About/FAQs

Discord