File Size70.16 MB (73,566,407 bytes)
DownloadAnonFiles | ClickNUpload | DropAPK | Free | MultiUp
  • BdUpload
  • DownAce
  • Fichier
  • FileCloud
  • Filerio
  • FilesCdn
  • IndiShare
  • Kbagi
  • Turbobit
  • UpToBox
  • Uppit
| SolidFiles | ZippyShare
HashesCRC32: C5922835, MD5: CDE2DE6D34578A701DADF184FC3A7127, SHA1: 17E46A02F77F7F5C65EFF2E26FFFAA27C2333928, SHA256: 2BDDD7225DE1245065DEC238A203B6BD7B49DE03150AE9882622A773FB89BA59, ED2K: F2F38EA1DBF5ADEF6F0B2649B35A1453
Screenshots
screenshotscreenshotscreenshotscreenshotscreenshot
SubtitlesAll Attachments | eng [ASS]
Additional Info
General
Unique ID                                : 143263024626442065048102189535130435821 (0x6BC77474AA0BD60E23828427709640ED)
Complete name                            : [Impatience] Otona no Bouguya-san S2 - 02 [720p][C5922835].mkv
Format                                   : Matroska
Format version                           : Version 4
File size                                : 70.2 MiB
Duration                                 : 6 min 10 s
Overall bit rate                         : 1 589 kb/s
Movie name                               : [Impatience] Otona no Bouguya-san S2 - 02 [720p]
Encoded date                             : UTC 2021-01-10 04:03:40
Writing application                      : mkvmerge v51.0.0 ('I Wish') 64-bit
Writing library                          : libebml v1.4.0 + libmatroska v1.6.2
Attachments                              : BlambotPro.ttf / bl-norm.ttf / BlueHighway.ttf / Cabin-PL-Bold.ttf / Cabin-PL-BoldItalic.ttf / E-SQUARE_demo.otf / ExposureSalary-D47d.ttf / GrilledCheese_20BTN_20Toasted.ttf / IWAGYOPRO-KAMI-BD.TTF / KGTurningTables.ttf / kozminpro-bold.ttf / Lato-Reg.ttf / Machine Gunk.otf / novem.ttf / advanced_dot_digital-7.ttf / Arial_1.ttf / arialbd.ttf / Aver.ttf

Video
ID                                       : 3
Format                                   : AVC
Format/Info                              : Advanced Video Codec
Format profile                           : High 10@L5
Format settings                          : CABAC / 16 Ref Frames
Format settings, CABAC                   : Yes
Format settings, ReFrames                : 16 frames
Codec ID                                 : V_MPEG4/ISO/AVC
Duration                                 : 6 min 10 s
Bit rate                                 : 1 267 kb/s
Width                                    : 1 280 pixels
Height                                   : 720 pixels
Display aspect ratio                     : 16:9
Frame rate mode                          : Constant
Frame rate                               : 23.976 (24000/1001) FPS
Color space                              : YUV
Chroma subsampling                       : 4:2:0
Bit depth                                : 10 bits
Scan type                                : Progressive
Bits/(Pixel*Frame)                       : 0.057
Stream size                              : 55.9 MiB (80%)
Writing library                          : x264 core 157 r2969 d4099dd
Encoding settings                        : cabac=1 / ref=16 / deblock=1:1:1 / analyse=0x3:0x133 / me=umh / subme=10 / psy=1 / psy_rd=0.40:0.00 / mixed_ref=1 / me_range=24 / chroma_me=1 / trellis=2 / 8x8dct=1 / cqm=0 / deadzone=21,11 / fast_pskip=0 / chroma_qp_offset=-3 / threads=18 / lookahead_threads=4 / sliced_threads=0 / nr=0 / decimate=1 / interlaced=0 / bluray_compat=0 / constrained_intra=0 / bframes=10 / b_pyramid=2 / b_adapt=2 / b_bias=0 / direct=1 / weightb=1 / open_gop=0 / weightp=2 / keyint=240 / keyint_min=23 / scenecut=40 / intra_refresh=0 / rc_lookahead=60 / rc=crf / mbtree=1 / crf=16.0 / qcomp=0.60 / qpmin=0 / qpmax=69 / qpstep=4 / ip_ratio=1.40 / aq=1:0.60
Language                                 : Japanese
Default                                  : Yes
Forced                                   : No
Color range                              : Limited
Matrix coefficients                      : BT.709

Audio
ID                                       : 2
Format                                   : AAC LC
Format/Info                              : Advanced Audio Codec Low Complexity
Codec ID                                 : A_AAC-2
Duration                                 : 6 min 10 s
Bit rate                                 : 254 kb/s
Channel(s)                               : 2 channels
Channel layout                           : L R
Sampling rate                            : 44.1 kHz
Frame rate                               : 43.066 FPS (1024 SPF)
Compression mode                         : Lossy
Delay relative to video                  : 10 ms
Stream size                              : 11.2 MiB (16%)
Language                                 : Japanese
Default                                  : Yes
Forced                                   : No

Text
ID                                       : 1
Format                                   : ASS
Codec ID                                 : S_TEXT/ASS
Codec ID/Info                            : Advanced Sub Station Alpha
Duration                                 : 6 min 5 s
Bit rate                                 : 1 436 b/s
Count of elements                        : 511
Compression mode                         : Lossless
Stream size                              : 64.1 KiB (0%)
Language                                 : English
Default                                  : Yes
Forced                                   : No

Menu
00:00:00.000                             : :Intro
00:00:45.045                             : :OP
00:01:14.992                             : :Part A
00:01:52.946                             : :Part B
00:02:36.865                             : :Part C
00:03:30.001                             : :ED
00:03:49.521                             : :Preview
00:04:02.951                             : :New Armor Paradise
beta
Anime DDL+NZB mirror
Current Time: 16/04/2021 18:08



About/FAQs