File Size736.5 MB (772,282,057 bytes)
DownloadGo4Up | Jheberg | MultiUp | OpenLoad | UsersCloud
Sendspace: Part1, Part2, Part3
SolidFiles: Part1, Part2
HashesCRC32: 8ABB4DD7, MD5: 4018B23B6B8207A1D45139C72A878B15, SHA1: 5A5C0B683FFA2F1995146DA4F5F79C63BDDE2A3D, SHA256: C86E7F9211B5564C83CC7BF2C0C26E820358B918EDD3686B5072355925250D15, ED2K: 1E5B16F77CD172348DCF1E4889D3DB6B
Screenshots
screenshotscreenshotscreenshotscreenshotscreenshot
Additional Info
General
Unique ID                                : 254609856490397514167171915266623084707 (0xBF8C131DE8457C1D93AF07881B0518A3)
Complete name                            : HxH23.mkv
Format                                   : Matroska
Format version                           : Version 4 / Version 2
File size                                : 737 MiB
Duration                                 : 21 min 57 s
Overall bit rate mode                    : Variable
Overall bit rate                         : 4 691 kb/s
Encoded date                             : UTC 2016-10-10 01:22:59
Writing application                      : mkvmerge v9.4.2 ('So High') 64bit
Writing library                          : libebml v1.3.4 + libmatroska v1.4.5

Video
ID                                       : 1
Format                                   : AVC
Format/Info                              : Advanced Video Codec
Format profile                           : High@L5.2
Format settings, CABAC                   : Yes
Format settings, ReFrames                : 3 frames
Codec ID                                 : V_MPEG4/ISO/AVC
Duration                                 : 21 min 57 s
Bit rate mode                            : Variable
Bit rate                                 : 4 499 kb/s
Maximum bit rate                         : 6 000 kb/s
Width                                    : 1 280 pixels
Height                                   : 720 pixels
Display aspect ratio                     : 16:9
Frame rate mode                          : Constant
Frame rate                               : 29.970 (30000/1001) FPS
Standard                                 : NTSC
Color space                              : YUV
Chroma subsampling                       : 4:2:0
Bit depth                                : 8 bits
Scan type                                : Progressive
Bits/(Pixel*Frame)                       : 0.163
Stream size                              : 706 MiB (96%)
Language                                 : English
Default                                  : Yes
Forced                                   : No
Color range                              : Limited
Color primaries                          : BT.709
Transfer characteristics                 : BT.709
Matrix coefficients                      : BT.709

Audio
ID                                       : 2
Format                                   : AAC
Format/Info                              : Advanced Audio Codec
Format profile                           : LC
Codec ID                                 : A_AAC
Duration                                 : 21 min 57 s
Bit rate                                 : 192 kb/s
Channel(s)                               : 2 channels
Channel positions                        : Front: L R
Sampling rate                            : 48.0 kHz
Frame rate                               : 46.875 FPS (1024 spf)
Compression mode                         : Lossy
Stream size                              : 29.7 MiB (4%)
Language                                 : English
Default                                  : Yes
Forced                                   : No
beta
Anime DDL+NZB mirror
Current Time: 12/07/2024 22:59



About/FAQs

Discord