Hunter X Hunter - Phantom Rouge/Hunter X Hunter - Phantom Rouge.mp4


File Size308.1 MB (323,024,358 bytes)
DownloadAnonFiles | Go4Up | Jheberg | MultiUp | SolidFiles | UsersFiles
Sendspace: Part1, Part2
ShareBeast: Part1, Part2
HashesCRC32: 31C5530E, MD5: E80371E387A970362A606868B9FDEA80, SHA1: BBC0488D9A6F2BF8B4B6603EB41028E8E559ED02, ED2K: D015E2D808EAE9CA5E4D81C7A71EFB46
Screenshots
screenshotscreenshotscreenshotscreenshotscreenshot
Additional Info
General
Complete name                            : Hunter X Hunter - Phantom Rouge.mp4
Format                                   : MPEG-4
Format profile                           : Base Media
Codec ID                                 : isom
File size                                : 308 MiB
Duration                                 : 1h 36mn
Overall bit rate mode                    : Variable
Overall bit rate                         : 444 Kbps
Movie name                               : [Hatsuyuki] Hunter X Hunter - Phantom Rouge [BD 10bit 1280x720][1DD9A5C7]
Encoded date                             : UTC 2014-01-14 10:29:24
Tagged date                              : UTC 2014-01-14 10:29:24

Video
ID                                       : 1
Format                                   : AVC
Format/Info                              : Advanced Video Codec
Format profile                           : High@L3.1
Format settings, CABAC                   : Yes
Format settings, ReFrames                : 5 frames
Codec ID                                 : avc1
Codec ID/Info                            : Advanced Video Coding
Duration                                 : 1h 36mn
Bit rate                                 : 312 Kbps
Maximum bit rate                         : 2 434 Kbps
Width                                    : 1 280 pixels
Height                                   : 720 pixels
Display aspect ratio                     : 16:9
Frame rate mode                          : Constant
Frame rate                               : 23.976 fps
Color space                              : YUV
Chroma subsampling                       : 4:2:0
Bit depth                                : 8 bits
Scan type                                : Progressive
Bits/(Pixel*Frame)                       : 0.014
Stream size                              : 217 MiB (70%)
Title                                    : VIDEO
Writing library                          : x264 core 125 r2208 d9d2288
Encoding settings                        : cabac=1 / ref=5 / deblock=1:-1:-1 / analyse=0x3:0x133 / me=umh / subme=7 / psy=1 / psy_rd=1.00:0.00 / mixed_ref=1 / me_range=16 / chroma_me=1 / trellis=2 / 8x8dct=1 / cqm=0 / deadzone=21,11 / fast_pskip=0 / chroma_qp_offset=-2 / threads=6 / lookahead_threads=1 / sliced_threads=0 / nr=0 / decimate=1 / interlaced=0 / bluray_compat=0 / constrained_intra=0 / bframes=3 / b_pyramid=2 / b_adapt=2 / b_bias=0 / direct=3 / weightb=1 / open_gop=0 / weightp=2 / keyint=250 / keyint_min=23 / scenecut=40 / intra_refresh=0 / rc_lookahead=50 / rc=crf / mbtree=1 / crf=30.0 / qcomp=0.60 / qpmin=0 / qpmax=69 / qpstep=4 / ip_ratio=1.40 / aq=1:0.60
Encoded date                             : UTC 2014-01-14 10:29:24
Tagged date                              : UTC 2014-01-14 10:29:28

Audio
ID                                       : 2
Format                                   : AAC
Format/Info                              : Advanced Audio Codec
Format profile                           : LC
Codec ID                                 : 40
Duration                                 : 1h 36mn
Bit rate mode                            : Variable
Bit rate                                 : 128 Kbps
Maximum bit rate                         : 177 Kbps
Channel(s)                               : 2 channels
Channel positions                        : Front: L R
Sampling rate                            : 48.0 KHz
Compression mode                         : Lossy
Stream size                              : 88.7 MiB (29%)
Title                                    : AUDIO
Language                                 : Japanese
Encoded date                             : UTC 2014-01-14 10:29:27
Tagged date                              : UTC 2014-01-14 10:29:28
beta
Anime DDL+NZB mirror
Current Time: 13/06/2024 08:35



About/FAQs

Discord