File Size8.626 GB (9,262,289,007 bytes)
DownloadClickNUpload: Part1, Part2, Part3, Part4, Part5, Part6, Part7, Part8, Part9
Jheberg: Part1, Part2, Part3, Part4, Part5, Part6, Part7, Part8, Part9
MultiUp: Part1, Part2, Part3, Part4, Part5, Part6, Part7, Part8, Part9
OpenLoad: Part1, Part2, Part3, Part4, Part5, Part6, Part7, Part8, Part9
SolidFiles: Part1, Part2, Part3, Part4, Part5, Part6, Part7, Part8, Part9, Part10, Part11, Part12, Part13, Part14, Part15, Part16, Part17, Part18
HashesCRC32: 8A45FF0C, MD5: A921A516E8DCF00BEF15CE90BDBFE02C, SHA1: A7C5DF80969F196A73278CDF9510C89EA4B6D927, SHA256: BA152AEF91E0D05084CC983FB4554AED4AD97A3C67DA35C8A8641682E72E47FF, ED2K: 3D2695E88DDC8DE801655EA9D37484EB
Screenshots
screenshotscreenshotscreenshotscreenshotscreenshot
SubtitlesAll Attachments | Signs [S-A] [eng, ASS], Subtitles [S-A] [jpn, ASS], Subtitles [Hatsuyuki] [jpn, ASS], Subtitles (Retail) [jpn, PGS]
Additional Info
General
Unique ID                                : 207818151646504213513867742901468103915 (0x9C5851F3AAE15A29866071CD18E384EB)
Complete name                            : Hunter.x.Hunter.2011.Phantom.Rouge.S00E01.1080p-Hi10p.BluRay.FLAC5.1.x264-CTR.[8A45FF0C].mkv
Format                                   : Matroska
Format version                           : Version 4 / Version 2
File size                                : 8.63 GiB
Duration                                 : 1 h 36 min
Overall bit rate mode                    : Variable
Overall bit rate                         : 12.7 Mb/s
Movie name                               : [S-A] Hunter x Hunter - Phantom Rouge [BD 1080p]
Encoded date                             : UTC 2018-02-23 19:00:34
Writing application                      : mkvmerge v18.0.0 ('Apricity') 64-bit
Writing library                          : libebml v1.3.5 + libmatroska v1.4.8
Attachments                              : BOOKOSB.TTF / ConferenceD.TTF / CRYSRG_.TTF / DejaVuSansBold.ttf / DejaVuSans-BoldOblique.ttf / GOTHIC.TTF / Lato-BolIta.ttf / TCB____.TTF / vogel-bold.ttf / Montara-Gothic.otf / belligerent.ttf / Montara-Gothic TR.otf

Video
ID                                       : 1
Format                                   : AVC
Format/Info                              : Advanced Video Codec
Format profile                           : High 10@L5
Format settings, CABAC                   : Yes
Format settings, ReFrames                : 8 frames
Codec ID                                 : V_MPEG4/ISO/AVC
Duration                                 : 1 h 36 min
Bit rate                                 : 5 359 kb/s
Width                                    : 1 920 pixels
Height                                   : 1 080 pixels
Display aspect ratio                     : 16:9
Frame rate mode                          : Constant
Frame rate                               : 23.976 (24000/1001) FPS
Color space                              : YUV
Chroma subsampling                       : 4:2:0
Bit depth                                : 10 bits
Scan type                                : Progressive
Bits/(Pixel*Frame)                       : 0.108
Stream size                              : 3.63 GiB (42%)
Title                                    : [mawen1250]
Writing library                          : x264 core 136 r2348+704+51 d1baef6 tMod [10-bit@4:2:0 X86_64]
Encoding settings                        : cabac=1 / ref=8 / deblock=1:0:0 / analyse=0x3:0x133 / me=tesa / subme=10 / psy=1 / fade_compensate=0.00 / psy_rd=0.60:0.10 / mixed_ref=1 / me_range=24 / chroma_me=1 / trellis=2 / 8x8dct=1 / cqm=0 / deadzone=21,11 / fast_pskip=0 / chroma_qp_offset=-3 / threads=8 / lookahead_threads=2 / sliced_threads=0 / nr=0 / decimate=0 / interlaced=0 / bluray_compat=0 / constrained_intra=0 / fgo=0 / bframes=12 / b_pyramid=2 / b_adapt=2 / b_bias=0 / direct=3 / weightb=1 / open_gop=0 / weightp=3 / keyint=720 / keyint_min=1 / scenecut=40 / intra_refresh=0 / rc_lookahead=72 / rc=crf / mbtree=1 / crf=17.0000 / qcomp=0.80 / qpmin=0:0:0 / qpmax=81:81:81 / qpstep=4 / ip_ratio=1.40 / aq=3:0.75 / aq-sensitivity=10.00 / aq-factor=1.00:1.00:1.00 / aq2=0 / aq3=0
Language                                 : Japanese
Default                                  : Yes
Forced                                   : No
Color range                              : Limited
Matrix coefficients                      : BT.709

Audio #1
ID                                       : 2
Format                                   : FLAC
Format/Info                              : Free Lossless Audio Codec
Codec ID                                 : A_FLAC
Duration                                 : 1 h 36 min
Bit rate mode                            : Variable
Bit rate                                 : 3 573 kb/s
Channel(s)                               : 6 channels
Sampling rate                            : 48.0 kHz
Frame rate                               : 11.719 FPS (4096 spf)
Bit depth                                : 24 bits
Stream size                              : 2.42 GiB (28%)
Title                                    : FLAC 5.1 [Etzimal]
Writing library                          : libFLAC 1.2.1 (UTC 2007-09-17)
Language                                 : English
Default                                  : Yes
Forced                                   : No

Audio #2
ID                                       : 3
Format                                   : FLAC
Format/Info                              : Free Lossless Audio Codec
Codec ID                                 : A_FLAC
Duration                                 : 1 h 36 min
Bit rate mode                            : Variable
Bit rate                                 : 3 755 kb/s
Channel(s)                               : 6 channels
Channel positions                        : Front: L C R, Side: L R, LFE
Sampling rate                            : 48.0 kHz
Frame rate                               : 11.719 FPS (4096 spf)
Bit depth                                : 24 bits
Stream size                              : 2.54 GiB (29%)
Title                                    : FLAC 5.1 [mawen1250]
Writing library                          : libFLAC 1.3.0 (UTC 2013-05-26)
Language                                 : Japanese
Default                                  : No
Forced                                   : No

Text #1
ID                                       : 4
Format                                   : ASS
Codec ID                                 : S_TEXT/ASS
Codec ID/Info                            : Advanced Sub Station Alpha
Duration                                 : 1 h 34 min
Bit rate                                 : 34 b/s
Count of elements                        : 228
Compression mode                         : Lossless
Stream size                              : 23.6 KiB (0%)
Title                                    : Signs [S-A]
Language                                 : English
Default                                  : Yes
Forced                                   : Yes

Text #2
ID                                       : 5
Format                                   : ASS
Codec ID                                 : S_TEXT/ASS
Codec ID/Info                            : Advanced Sub Station Alpha
Duration                                 : 1 h 34 min
Bit rate                                 : 126 b/s
Count of elements                        : 1550
Compression mode                         : Lossless
Stream size                              : 87.9 KiB (0%)
Title                                    : Subtitles [S-A]
Language                                 : Japanese
Default                                  : No
Forced                                   : No

Text #3
ID                                       : 6
Format                                   : ASS
Codec ID                                 : S_TEXT/ASS
Codec ID/Info                            : Advanced Sub Station Alpha
Duration                                 : 1 h 33 min
Bit rate                                 : 164 b/s
Count of elements                        : 1523
Compression mode                         : Lossless
Stream size                              : 112 KiB (0%)
Title                                    : Subtitles [Hatsuyuki]
Language                                 : Japanese
Default                                  : No
Forced                                   : No

Text #4
ID                                       : 7
Format                                   : PGS
Muxing mode                              : zlib
Codec ID                                 : S_HDMV/PGS
Codec ID/Info                            : Picture based subtitle format used on BDs/HD-DVDs
Duration                                 : 1 h 34 min
Bit rate                                 : 105 kb/s
Count of elements                        : 4566
Stream size                              : 70.8 MiB (1%)
Title                                    : Subtitles (Retail)
Language                                 : Japanese
Default                                  : No
Forced                                   : No

Menu
00:00:00.000                             : en:Chapter 01
00:01:49.484                             : en:Chapter 02
00:07:29.074                             : en:Chapter 03
00:12:16.069                             : en:Chapter 04
00:21:10.269                             : en:Chapter 05
00:24:21.794                             : en:Chapter 06
00:29:27.349                             : en:Chapter 07
00:33:49.361                             : en:Chapter 08
00:39:01.464                             : en:Chapter 09
00:47:10.286                             : en:Chapter 10
00:50:52.967                             : en:Chapter 11
01:00:32.838                             : en:Chapter 12
01:04:22.442                             : en:Chapter 13
01:10:18.256                             : en:Chapter 14
01:13:10.052                             : en:Chapter 15
01:17:19.218                             : en:Chapter 16
01:25:06.143                             : en:Chapter 17
01:31:39.911                             : en:Chapter 18
beta
Anime DDL+NZB mirror
Current Time: 21/06/2024 08:01



About/FAQs

Discord