File Size337.3 MB (353,655,538 bytes)
DownloadAnonFiles | ClickNUpload | DownloadGG | KrakenFiles | MultiUp
  • BdUpload
  • DownAce
  • Fichier
  • FileCloud
  • Filerio
  • FilesCdn
  • IndiShare
  • Kbagi
  • Turbobit
  • UpToBox
  • Uppit
| ZippyShare
HashesCRC32: 73983723, MD5: DDBF03B70BF6AC5F44021EC4BEDA9E8C, SHA1: F6096DD43472919F92B9042F23BC2A99E9F136C3, SHA256: CBE99655A443E71AEB6C9F0B6ACA84655B49394C38F1AB28006DFD8023FAEE03, ED2K: 3672AECFD98666FEE4B570B8A1FF577B
Screenshots
screenshotscreenshotscreenshotscreenshotscreenshot
SubtitlesAll Attachments | und [SRT]
Additional Info
General
Unique ID                                : 249403760312585203188214396827076765333 (0xBBA16AC202E8B8AA14AD94995E31A695)
Complete name                            : [HRS] Kanojo, Okarishimasu 2 - 04 1080p.mkv
Format                                   : Matroska
Format version                           : Version 4
File size                                : 337 MiB
Duration                                 : 25 min 26 s
Overall bit rate                         : 1 853 kb/s
Encoded date                             : UTC 2022-07-23 03:47:11
Writing application                      : mkvmerge v62.0.0 ('Apollo') 64-bit
Writing library                          : libebml v1.4.2 + libmatroska v1.6.4

Video
ID                                       : 1
Format                                   : HEVC
Format/Info                              : High Efficiency Video Coding
Format profile                           : Main 10@L4.1@Main
Codec ID                                 : V_MPEGH/ISO/HEVC
Duration                                 : 25 min 26 s
Bit rate                                 : 1 634 kb/s
Width                                    : 1 920 pixels
Height                                   : 1 080 pixels
Display aspect ratio                     : 16:9
Frame rate mode                          : Constant
Frame rate                               : 23.976 (24000/1001) FPS
Color space                              : YUV
Chroma subsampling                       : 4:2:0
Bit depth                                : 10 bits
Bits/(Pixel*Frame)                       : 0.033
Stream size                              : 297 MiB (88%)
Default                                  : Yes
Forced                                   : No

Audio
ID                                       : 2
Format                                   : AAC LC
Format/Info                              : Advanced Audio Codec Low Complexity
Codec ID                                 : A_AAC-2
Duration                                 : 25 min 26 s
Bit rate                                 : 216 kb/s
Channel(s)                               : 2 channels
Channel layout                           : L R
Sampling rate                            : 48.0 kHz
Frame rate                               : 46.875 FPS (1024 SPF)
Compression mode                         : Lossy
Stream size                              : 39.4 MiB (12%)
Language                                 : Japanese
Default                                  : Yes
Forced                                   : No

Text
ID                                       : 3
Format                                   : UTF-8
Codec ID                                 : S_TEXT/UTF8
Codec ID/Info                            : UTF-8 Plain Text
Duration                                 : 24 min 23 s
Bit rate                                 : 68 b/s
Count of elements                        : 469
Stream size                              : 12.2 KiB (0%)
Default                                  : Yes
Forced                                   : No
beta
Anime DDL+NZB mirror
Current Time: 06/10/2022 08:09



About/FAQs

Discord