File Size187.6 MB (196,685,882 bytes)
DownloadClickNUpload | DropAPK | MultiUp
  • BdUpload
  • DownAce
  • Fichier
  • FileCloud
  • Filerio
  • FilesCdn
  • IndiShare
  • Kbagi
  • Turbobit
  • UpToBox
  • Uppit
| Sendspace | SolidFiles | ZippyShare
HashesCRC32: 836BCD88, MD5: 2E9B479EDB9A59D5FF85858A77585B88, SHA1: 6A7709577228020ADB8F7347628EE5E1778044F7, SHA256: 5C19FB5A78043039EF3B47A85CC154C041FFEC0EB640F2086BAF6A25167D0CAC, ED2K: F41AA1414BC6672DA344CC635E1E0232
Screenshots
screenshotscreenshotscreenshotscreenshotscreenshot
SubtitlesAll Attachments | HS [eng, ASS], eng [ASS], fre [ASS], spa [ASS], lat [ASS], por [ASS], rus [ASS], ger [ASS], ita [ASS]
Additional Info
General
Unique ID                                : 62525254246946577757699349265565875792 (0x2F09ED0AA17710B75C2A4B1DC74FFE50)
Complete name                            : [HR] Kyokou Suiri S01E10 (Multi-Subs).mkv
Format                                   : Matroska
Format version                           : Version 4
File size                                : 188 MiB
Duration                                 : 24 min 0 s
Overall bit rate                         : 1 093 kb/s
Movie name                               : [Hakata Ramen] Kyokou Suiri S01E10 (Multi-Subs) ~GodZilla
Encoded date                             : UTC 2020-03-14 18:47:12
Writing application                      : mkvmerge v44.0.0 ('Domino') 64-bit
Writing library                          : libebml v1.3.10 + libmatroska v1.5.2
Attachments                              : OpenSans-Semibold.ttf

Video
ID                                       : 1
Format                                   : HEVC
Format/Info                              : High Efficiency Video Coding
Format profile                           : Main@L4@Main
Codec ID                                 : V_MPEGH/ISO/HEVC
Duration                                 : 24 min 0 s
Bit rate                                 : 958 kb/s
Width                                    : 1 920 pixels
Height                                   : 1 080 pixels
Display aspect ratio                     : 16:9
Frame rate mode                          : Constant
Frame rate                               : 23.976 (24000/1001) FPS
Color space                              : YUV
Chroma subsampling                       : 4:2:0
Bit depth                                : 8 bits
Bits/(Pixel*Frame)                       : 0.019
Stream size                              : 165 MiB (88%)
Title                                    : [Hakata Ramen] HEVC/.x265 (GodZilla)
Language                                 : Japanese
Default                                  : Yes
Forced                                   : No
Color range                              : Limited
Color primaries                          : BT.709
Transfer characteristics                 : BT.709
Matrix coefficients                      : BT.709

Audio
ID                                       : 2
Format                                   : Opus
Codec ID                                 : A_OPUS
Duration                                 : 24 min 0 s
Bit rate                                 : 128 kb/s
Channel(s)                               : 2 channels
Channel layout                           : L R
Sampling rate                            : 44.1 kHz
Frame rate                               : 50.001 FPS (882 SPF)
Compression mode                         : Lossy
Stream size                              : 22.0 MiB (12%)
Title                                    : [Hakata Ramen] 2 Channels Stereo (GodZilla)
Language                                 : Japanese
Default                                  : Yes
Forced                                   : No

Text #1
ID                                       : 3
Format                                   : ASS
Codec ID                                 : S_TEXT/ASS
Codec ID/Info                            : Advanced Sub Station Alpha
Duration                                 : 23 min 57 s
Bit rate                                 : 215 b/s
Count of elements                        : 410
Compression mode                         : Lossless
Stream size                              : 37.8 KiB (0%)
Title                                    : HS
Language                                 : English
Default                                  : No
Forced                                   : No

Text #2
ID                                       : 4
Format                                   : ASS
Codec ID                                 : S_TEXT/ASS
Codec ID/Info                            : Advanced Sub Station Alpha
Duration                                 : 23 min 57 s
Bit rate                                 : 215 b/s
Count of elements                        : 410
Compression mode                         : Lossless
Stream size                              : 37.8 KiB (0%)
Language                                 : English
Default                                  : No
Forced                                   : No

Text #3
ID                                       : 5
Format                                   : ASS
Codec ID                                 : S_TEXT/ASS
Codec ID/Info                            : Advanced Sub Station Alpha
Duration                                 : 23 min 56 s
Bit rate                                 : 158 b/s
Count of elements                        : 362
Compression mode                         : Lossless
Stream size                              : 27.8 KiB (0%)
Language                                 : French
Default                                  : No
Forced                                   : No

Text #4
ID                                       : 6
Format                                   : ASS
Codec ID                                 : S_TEXT/ASS
Codec ID/Info                            : Advanced Sub Station Alpha
Duration                                 : 23 min 56 s
Bit rate                                 : 134 b/s
Count of elements                        : 318
Compression mode                         : Lossless
Stream size                              : 23.5 KiB (0%)
Language                                 : Spanish
Default                                  : No
Forced                                   : No

Text #5
ID                                       : 7
Format                                   : ASS
Codec ID                                 : S_TEXT/ASS
Codec ID/Info                            : Advanced Sub Station Alpha
Duration                                 : 23 min 56 s
Bit rate                                 : 131 b/s
Count of elements                        : 318
Compression mode                         : Lossless
Stream size                              : 23.1 KiB (0%)
Language                                 : Latin
Default                                  : No
Forced                                   : No

Text #6
ID                                       : 8
Format                                   : ASS
Codec ID                                 : S_TEXT/ASS
Codec ID/Info                            : Advanced Sub Station Alpha
Duration                                 : 23 min 57 s
Bit rate                                 : 209 b/s
Count of elements                        : 395
Compression mode                         : Lossless
Stream size                              : 36.7 KiB (0%)
Language                                 : Portuguese
Default                                  : No
Forced                                   : No

Text #7
ID                                       : 9
Format                                   : ASS
Codec ID                                 : S_TEXT/ASS
Codec ID/Info                            : Advanced Sub Station Alpha
Duration                                 : 23 min 57 s
Bit rate                                 : 302 b/s
Count of elements                        : 392
Compression mode                         : Lossless
Stream size                              : 53.1 KiB (0%)
Language                                 : Russian
Default                                  : No
Forced                                   : No

Text #8
ID                                       : 10
Format                                   : ASS
Codec ID                                 : S_TEXT/ASS
Codec ID/Info                            : Advanced Sub Station Alpha
Duration                                 : 23 min 57 s
Bit rate                                 : 232 b/s
Count of elements                        : 396
Compression mode                         : Lossless
Stream size                              : 40.8 KiB (0%)
Language                                 : German
Default                                  : No
Forced                                   : No

Text #9
ID                                       : 11
Format                                   : ASS
Codec ID                                 : S_TEXT/ASS
Codec ID/Info                            : Advanced Sub Station Alpha
Duration                                 : 23 min 57 s
Bit rate                                 : 229 b/s
Count of elements                        : 485
Compression mode                         : Lossless
Stream size                              : 40.3 KiB (0%)
Language                                 : Italian
Default                                  : No
Forced                                   : No
beta
Anime DDL+NZB mirror
Current Time: 02/12/2021 10:08



About/FAQs

Discord