File Size172.0 MB (180,373,125 bytes)
DownloadClickNUpload | DropAPK | Jheberg | MultiUp
  • BdUpload
  • DownAce
  • Fichier
  • FileCloud
  • Filerio
  • FilesCdn
  • IndiShare
  • Kbagi
  • Turbobit
  • UpToBox
  • Uppit
| Sendspace | SolidFiles | ZippyShare
HashesCRC32: 665E1E13, MD5: BDFC8BD4AE3A299D21C9F679732CA457, SHA1: E1B16E44780F3441DC2EEBBB2C0F02B8E6FB11AA, SHA256: 96D4732214548FD7043C4B68E695EED980A5C559B21A21E6F2B8B35C1FBD25C5, ED2K: 79FC6BDDEDF3B9FC95B0738473F06368
Screenshots
screenshotscreenshotscreenshotscreenshotscreenshot
SubtitlesAll Attachments | HS [eng, ASS], eng [ASS], fre [ASS], spa [ASS], lat [ASS], por [ASS], ara [ASS], rus [ASS], ger [ASS], ita [ASS]
Additional Info
General
Unique ID                                : 263956193345779725939300286765536021217 (0xC6941D19F16F7B2F80C0451F30728AE1)
Complete name                            : [HR] Kyokou Suiri S01E08 (Multi-Subs).mkv
Format                                   : Matroska
Format version                           : Version 4
File size                                : 172 MiB
Duration                                 : 24 min 0 s
Overall bit rate                         : 1 002 kb/s
Movie name                               : [Hakata Ramen] Kyokou Suiri S01E08 (Multi-Subs) ~GodZilla
Encoded date                             : UTC 2020-02-29 19:29:58
Writing application                      : mkvmerge v43.0.0 ('The Quartermaster') 64-bit
Writing library                          : libebml v1.3.10 + libmatroska v1.5.2
Attachments                              : OpenSans-Semibold.ttf

Video
ID                                       : 1
Format                                   : HEVC
Format/Info                              : High Efficiency Video Coding
Format profile                           : Main@L4@Main
Codec ID                                 : V_MPEGH/ISO/HEVC
Duration                                 : 24 min 0 s
Bit rate                                 : 867 kb/s
Width                                    : 1 920 pixels
Height                                   : 1 080 pixels
Display aspect ratio                     : 16:9
Frame rate mode                          : Constant
Frame rate                               : 23.976 (24000/1001) FPS
Color space                              : YUV
Chroma subsampling                       : 4:2:0
Bit depth                                : 8 bits
Bits/(Pixel*Frame)                       : 0.017
Stream size                              : 149 MiB (87%)
Title                                    : [Hakata Ramen] HEVC/.x265 (GodZilla)
Language                                 : Japanese
Default                                  : Yes
Forced                                   : No
Color range                              : Limited
Color primaries                          : BT.709
Transfer characteristics                 : BT.709
Matrix coefficients                      : BT.709

Audio
ID                                       : 2
Format                                   : Opus
Codec ID                                 : A_OPUS
Duration                                 : 24 min 0 s
Bit rate                                 : 128 kb/s
Channel(s)                               : 2 channels
Channel layout                           : L R
Sampling rate                            : 44.1 kHz
Frame rate                               : 50.001 FPS (882 SPF)
Compression mode                         : Lossy
Stream size                              : 22.0 MiB (13%)
Title                                    : [Hakata Ramen] 2 Channels Stereo (GodZilla)
Language                                 : Japanese
Default                                  : Yes
Forced                                   : No

Text #1
ID                                       : 3
Format                                   : ASS
Codec ID                                 : S_TEXT/ASS
Codec ID/Info                            : Advanced Sub Station Alpha
Duration                                 : 23 min 56 s
Bit rate                                 : 284 b/s
Count of elements                        : 473
Compression mode                         : Lossless
Stream size                              : 49.8 KiB (0%)
Title                                    : HS
Language                                 : English
Default                                  : No
Forced                                   : No

Text #2
ID                                       : 4
Format                                   : ASS
Codec ID                                 : S_TEXT/ASS
Codec ID/Info                            : Advanced Sub Station Alpha
Duration                                 : 23 min 56 s
Bit rate                                 : 284 b/s
Count of elements                        : 473
Compression mode                         : Lossless
Stream size                              : 49.8 KiB (0%)
Language                                 : English
Default                                  : No
Forced                                   : No

Text #3
ID                                       : 5
Format                                   : ASS
Codec ID                                 : S_TEXT/ASS
Codec ID/Info                            : Advanced Sub Station Alpha
Duration                                 : 23 min 56 s
Bit rate                                 : 149 b/s
Count of elements                        : 362
Compression mode                         : Lossless
Stream size                              : 26.3 KiB (0%)
Language                                 : French
Default                                  : No
Forced                                   : No

Text #4
ID                                       : 6
Format                                   : ASS
Codec ID                                 : S_TEXT/ASS
Codec ID/Info                            : Advanced Sub Station Alpha
Duration                                 : 23 min 56 s
Bit rate                                 : 128 b/s
Count of elements                        : 334
Compression mode                         : Lossless
Stream size                              : 22.5 KiB (0%)
Language                                 : Spanish
Default                                  : No
Forced                                   : No

Text #5
ID                                       : 7
Format                                   : ASS
Codec ID                                 : S_TEXT/ASS
Codec ID/Info                            : Advanced Sub Station Alpha
Duration                                 : 23 min 56 s
Bit rate                                 : 126 b/s
Count of elements                        : 334
Compression mode                         : Lossless
Stream size                              : 22.2 KiB (0%)
Language                                 : Latin
Default                                  : No
Forced                                   : No

Text #6
ID                                       : 8
Format                                   : ASS
Codec ID                                 : S_TEXT/ASS
Codec ID/Info                            : Advanced Sub Station Alpha
Duration                                 : 23 min 56 s
Bit rate                                 : 276 b/s
Count of elements                        : 461
Compression mode                         : Lossless
Stream size                              : 48.6 KiB (0%)
Language                                 : Portuguese
Default                                  : No
Forced                                   : No

Text #7
ID                                       : 9
Format                                   : ASS
Codec ID                                 : S_TEXT/ASS
Codec ID/Info                            : Advanced Sub Station Alpha
Duration                                 : 23 min 56 s
Bit rate                                 : 193 b/s
Count of elements                        : 371
Compression mode                         : Lossless
Stream size                              : 34.0 KiB (0%)
Language                                 : Arabic
Default                                  : No
Forced                                   : No

Text #8
ID                                       : 10
Format                                   : ASS
Codec ID                                 : S_TEXT/ASS
Codec ID/Info                            : Advanced Sub Station Alpha
Duration                                 : 23 min 56 s
Bit rate                                 : 368 b/s
Count of elements                        : 460
Compression mode                         : Lossless
Stream size                              : 64.6 KiB (0%)
Language                                 : Russian
Default                                  : No
Forced                                   : No

Text #9
ID                                       : 11
Format                                   : ASS
Codec ID                                 : S_TEXT/ASS
Codec ID/Info                            : Advanced Sub Station Alpha
Duration                                 : 23 min 57 s
Bit rate                                 : 273 b/s
Count of elements                        : 462
Compression mode                         : Lossless
Stream size                              : 48.0 KiB (0%)
Language                                 : German
Default                                  : No
Forced                                   : No

Text #10
ID                                       : 12
Format                                   : ASS
Codec ID                                 : S_TEXT/ASS
Codec ID/Info                            : Advanced Sub Station Alpha
Duration                                 : 23 min 56 s
Bit rate                                 : 196 b/s
Count of elements                        : 415
Compression mode                         : Lossless
Stream size                              : 34.5 KiB (0%)
Language                                 : Italian
Default                                  : No
Forced                                   : No
beta
Anime DDL+NZB mirror
Current Time: 26/09/2021 03:33



About/FAQs

Discord