File Size373.0 MB (391,096,414 bytes)
DownloadClickNUpload | DropAPK | Free | MultiUp
  • BdUpload
  • DownAce
  • Fichier
  • FileCloud
  • Filerio
  • FilesCdn
  • IndiShare
  • Kbagi
  • Turbobit
  • UpToBox
  • Uppit
| SolidFiles | ZippyShare
Sendspace: Part1, Part2
HashesCRC32: E70037C1, MD5: 43B978211AF96F52885847789C011F39, SHA1: 36357C6E840D3642CE4B4DC52C9350DB6CCBC4F2, SHA256: 9FF6A45357E37EDEDE4BAAE2DA77D90CFD606092ABB8194D3D5D30AFA8CB793D, ED2K: 636F970B89A8427F1FEC7BFA798330DB
Screenshots
screenshotscreenshotscreenshotscreenshotscreenshot
SubtitlesAll Attachments | HS [eng, ASS]
Additional Info
General
Unique ID                                : 112038217108974035908007211449832829762 (0x5449C695E30E3F986360F5E25629F342)
Complete name                            : [HR] Infinite Dendrogram S01E10.mkv
Format                                   : Matroska
Format version                           : Version 4
File size                                : 373 MiB
Duration                                 : 23 min 48 s
Overall bit rate                         : 2 190 kb/s
Movie name                               : [Hakata Ramen] Infinite Dendrogram S01E10 ~GodZilla
Encoded date                             : UTC 2020-03-19 16:16:38
Writing application                      : mkvmerge v44.0.0 ('Domino') 64-bit
Writing library                          : libebml v1.3.10 + libmatroska v1.5.2
Attachments                              : OpenSans-Semibold.ttf

Video
ID                                       : 1
Format                                   : HEVC
Format/Info                              : High Efficiency Video Coding
Format profile                           : Main@L4@Main
Codec ID                                 : V_MPEGH/ISO/HEVC
Duration                                 : 23 min 48 s
Bit rate                                 : 2 058 kb/s
Width                                    : 1 920 pixels
Height                                   : 1 080 pixels
Display aspect ratio                     : 16:9
Frame rate mode                          : Constant
Frame rate                               : 23.976 (24000/1001) FPS
Color space                              : YUV
Chroma subsampling                       : 4:2:0
Bit depth                                : 8 bits
Bits/(Pixel*Frame)                       : 0.041
Stream size                              : 350 MiB (94%)
Title                                    : [Hakata Ramen] HEVC/.x265 (GodZilla)
Language                                 : Japanese
Default                                  : Yes
Forced                                   : No
Color range                              : Limited
Color primaries                          : BT.709
Transfer characteristics                 : BT.709
Matrix coefficients                      : BT.709

Audio
ID                                       : 2
Format                                   : Opus
Codec ID                                 : A_OPUS
Duration                                 : 23 min 48 s
Bit rate                                 : 128 kb/s
Channel(s)                               : 2 channels
Channel layout                           : L R
Sampling rate                            : 48.0 kHz
Frame rate                               : 50.001 FPS (960 SPF)
Compression mode                         : Lossy
Stream size                              : 21.9 MiB (6%)
Title                                    : [Hakata Ramen] 2 Channels Stereo (GodZilla)
Language                                 : Japanese
Default                                  : Yes
Forced                                   : No

Text
ID                                       : 3
Format                                   : ASS
Codec ID                                 : S_TEXT/ASS
Codec ID/Info                            : Advanced Sub Station Alpha
Duration                                 : 23 min 36 s
Bit rate                                 : 96 b/s
Count of elements                        : 267
Compression mode                         : Lossless
Stream size                              : 16.8 KiB (0%)
Title                                    : HS
Language                                 : English
Default                                  : No
Forced                                   : No
beta
Anime DDL+NZB mirror
Current Time: 13/07/2020 05:22



About/FAQs