File Size103.1 MB (108,140,223 bytes)
DownloadClickNUpload | DropAPK | Free | MultiUp
  • BdUpload
  • DownAce
  • Fichier
  • FileCloud
  • Filerio
  • FilesCdn
  • IndiShare
  • Kbagi
  • Turbobit
  • UpToBox
  • Uppit
| Sendspace | SolidFiles | ZippyShare
HashesCRC32: 2FDEBAF1, MD5: 78FB6BE2BF8D162E02F1D6010E0C6B1D, SHA1: 694C9C7CEDADB7A703FFFE4E24C25EFF402598F8, SHA256: 49C3245F0B3C92CCE2009456CEF45A2D8A906DE01514483BDF77CF8D941BCE1B, ED2K: 4E7805879FB5B3E14348077B0FB14C56
Screenshots
screenshotscreenshotscreenshotscreenshotscreenshot
SubtitlesAll Attachments | HS [eng, ASS]
Additional Info
General
Unique ID                                : 120511634387686798989191244071945289222 (0x5AA9B24FE23D47D639CC71C2A7C6BE06)
Complete name                            : [HR] Housekishou Richard-shi no Nazo Kantei S01E11.mkv
Format                                   : Matroska
Format version                           : Version 4
File size                                : 103 MiB
Duration                                 : 23 min 40 s
Overall bit rate                         : 609 kb/s
Movie name                               : [Hakata Ramen] Housekishou Richard-shi no Nazo Kantei S01E11 ~GodZilla
Encoded date                             : UTC 2020-03-19 17:07:18
Writing application                      : mkvmerge v44.0.0 ('Domino') 64-bit
Writing library                          : libebml v1.3.10 + libmatroska v1.5.2
Attachments                              : OpenSans-Semibold.ttf

Video
ID                                       : 1
Format                                   : HEVC
Format/Info                              : High Efficiency Video Coding
Format profile                           : Main@L4@Main
Codec ID                                 : V_MPEGH/ISO/HEVC
Duration                                 : 23 min 40 s
Bit rate                                 : 477 kb/s
Width                                    : 1 920 pixels
Height                                   : 1 080 pixels
Display aspect ratio                     : 16:9
Frame rate mode                          : Constant
Frame rate                               : 23.976 (24000/1001) FPS
Color space                              : YUV
Chroma subsampling                       : 4:2:0
Bit depth                                : 8 bits
Bits/(Pixel*Frame)                       : 0.010
Stream size                              : 80.8 MiB (78%)
Title                                    : [Hakata Ramen] HEVC/.x265 (GodZilla)
Language                                 : Japanese
Default                                  : Yes
Forced                                   : No
Color range                              : Limited
Color primaries                          : BT.709
Transfer characteristics                 : BT.709
Matrix coefficients                      : BT.709

Audio
ID                                       : 2
Format                                   : Opus
Codec ID                                 : A_OPUS
Duration                                 : 23 min 40 s
Bit rate                                 : 128 kb/s
Channel(s)                               : 2 channels
Channel layout                           : L R
Sampling rate                            : 44.1 kHz
Frame rate                               : 50.000 FPS (882 SPF)
Compression mode                         : Lossy
Stream size                              : 21.7 MiB (21%)
Title                                    : [Hakata Ramen] 2 Channels Stereo (GodZilla)
Language                                 : Japanese
Default                                  : Yes
Forced                                   : No

Text
ID                                       : 3
Format                                   : ASS
Codec ID                                 : S_TEXT/ASS
Codec ID/Info                            : Advanced Sub Station Alpha
Duration                                 : 22 min 4 s
Bit rate                                 : 124 b/s
Count of elements                        : 272
Compression mode                         : Lossless
Stream size                              : 20.1 KiB (0%)
Title                                    : HS
Language                                 : English
Default                                  : No
Forced                                   : No
beta
Anime DDL+NZB mirror
Current Time: 29/09/2020 22:49



About/FAQs