File Size361.7 MB (379,282,730 bytes)
DownloadClickNUpload | DailyUploads | DownloadGG | GoFile | KrakenFiles | MdiaLoad | MultiUp
  • BdUpload
  • DownAce
  • Fichier
  • FileCloud
  • Filerio
  • FilesCdn
  • IndiShare
  • Kbagi
  • Turbobit
  • UpToBox
  • Uppit
| Uppit
HashesCRC32: 32274800, MD5: FDB1B138CDBB4B476C036C95528E82FA, SHA1: 56A53FC3C8A4C6F28DCCD05384480B527A7A592D, SHA256: 64D58853A2B3DF01690A21E324B5C136180339902D5AB6BCB7C5D0BC6AE81E2B, ED2K: EAC415CE3858DC90BB838E3AE2356D67
Screenshots
screenshotscreenshotscreenshotscreenshotscreenshot
SubtitlesAll Attachments | English (NF) [eng, SRT], English (CR) [eng, SRT], Korean (NF) [kor, SRT], Thai (NF) [tha, SRT], Malay (NF) [may, SRT], Indonesian (NF) [ind, SRT], Vietnamese (NF) [vie, SRT], Chinese Traditional (NF) [chi, SRT], Chinese Traditional (NF) [chi, SRT], French (CR) [fre, SRT], Spanish Latin (CR) [spa, SRT], Spanish Spain (CR) [spa, SRT], Portuguese Brazil (CR) [por, SRT], Arabic (CR) [ara, SRT], Russian (CR) [rus, SRT], German (CR) [ger, SRT], Italian (CR) [ita, SRT]
Additional Info
General
Unique ID                                : 335947901314582281130664827555214609961 (0xFCBD36589C244337EA5BEAE1CDDD4E29)
Complete name                            : [HR] Frieren S01E14 [32274800].mkv
Format                                   : Matroska
Format version                           : Version 4
File size                                : 362 MiB
Duration                                 : 24 min 30 s
Overall bit rate                         : 2 063 kb/s
Frame rate                               : 23.976 FPS
Movie name                               : [Hakata Ramen] 葬送のフリーレン S01E14 若者の特権 [Hulu 1080p AV1 E-OPUS Dual] ~Satoshi
Encoded date                             : 2024-01-28 21:53:51 UTC
Writing application                      : mkvmerge v82.0 ('I'm The President') 64-bit
Writing library                          : libebml v1.4.5 + libmatroska v1.7.1
Cover                                    : Yes
Attachments                              : Cover.jpg

Video
ID                                       : 1
Format                                   : AV1
Format/Info                              : AOMedia Video 1
Format profile                           : Main@L4.0
Codec ID                                 : V_AV1
Duration                                 : 24 min 29 s
Bit rate                                 : 1 865 kb/s
Width                                    : 1 920 pixels
Height                                   : 1 080 pixels
Display aspect ratio                     : 16:9
Frame rate mode                          : Constant
Frame rate                               : 23.976 (24000/1001) FPS
Color space                              : YUV
Chroma subsampling                       : 4:2:0
Bit depth                                : 10 bits
Bits/(Pixel*Frame)                       : 0.038
Stream size                              : 327 MiB (90%)
Title                                    : [Hakata Ramen] AV1 (大村 智)
Language                                 : Japanese
Default                                  : Yes
Forced                                   : No
Color range                              : Limited
Color primaries                          : BT.709
Transfer characteristics                 : BT.709
Matrix coefficients                      : BT.709

Audio #1
ID                                       : 2
Format                                   : Opus
Codec ID                                 : A_OPUS
Duration                                 : 24 min 29 s
Bit rate                                 : 96.4 kb/s
Channel(s)                               : 2 channels
Channel layout                           : L R
Sampling rate                            : 48.0 kHz
Frame rate                               : 50.000 FPS (960 SPF)
Compression mode                         : Lossy
Stream size                              : 16.9 MiB (5%)
Title                                    : [HR] 2 Channels Stereo (Doc_Ramen)
Language                                 : Japanese
Default                                  : Yes
Forced                                   : No

Audio #2
ID                                       : 3
Format                                   : Opus
Codec ID                                 : A_OPUS
Duration                                 : 24 min 30 s
Bit rate                                 : 96.4 kb/s
Channel(s)                               : 2 channels
Channel layout                           : L R
Sampling rate                            : 44.1 kHz
Frame rate                               : 50.000 FPS (882 SPF)
Compression mode                         : Lossy
Stream size                              : 16.9 MiB (5%)
Title                                    : [HR] 2 Channels Stereo (Doc_Ramen)
Language                                 : English
Default                                  : Yes
Forced                                   : No

Text #1
ID                                       : 4
Format                                   : UTF-8
Codec ID                                 : S_TEXT/UTF8
Codec ID/Info                            : UTF-8 Plain Text
Duration                                 : 24 min 30 s
Bit rate                                 : 56 b/s
Frame rate                               : 0.211 FPS
Count of elements                        : 310
Stream size                              : 10.1 KiB (0%)
Title                                    : English (NF)
Language                                 : English
Default                                  : No
Forced                                   : No

Text #2
ID                                       : 5
Format                                   : UTF-8
Codec ID                                 : S_TEXT/UTF8
Codec ID/Info                            : UTF-8 Plain Text
Duration                                 : 24 min 30 s
Bit rate                                 : 60 b/s
Frame rate                               : 0.237 FPS
Count of elements                        : 349
Stream size                              : 10.9 KiB (0%)
Title                                    : English (CR)
Language                                 : English
Default                                  : No
Forced                                   : No

Text #3
ID                                       : 6
Format                                   : UTF-8
Codec ID                                 : S_TEXT/UTF8
Codec ID/Info                            : UTF-8 Plain Text
Duration                                 : 24 min 30 s
Bit rate                                 : 58 b/s
Frame rate                               : 0.212 FPS
Count of elements                        : 312
Stream size                              : 10.6 KiB (0%)
Title                                    : Korean (NF)
Language                                 : Korean
Default                                  : No
Forced                                   : No

Text #4
ID                                       : 7
Format                                   : UTF-8
Codec ID                                 : S_TEXT/UTF8
Codec ID/Info                            : UTF-8 Plain Text
Duration                                 : 24 min 30 s
Bit rate                                 : 137 b/s
Frame rate                               : 0.211 FPS
Count of elements                        : 311
Stream size                              : 24.8 KiB (0%)
Title                                    : Thai (NF)
Language                                 : Thai
Default                                  : No
Forced                                   : No

Text #5
ID                                       : 8
Format                                   : UTF-8
Codec ID                                 : S_TEXT/UTF8
Codec ID/Info                            : UTF-8 Plain Text
Duration                                 : 24 min 30 s
Bit rate                                 : 54 b/s
Frame rate                               : 0.211 FPS
Count of elements                        : 311
Stream size                              : 9.86 KiB (0%)
Title                                    : Malay (NF)
Language                                 : Malay
Default                                  : No
Forced                                   : No

Text #6
ID                                       : 9
Format                                   : UTF-8
Codec ID                                 : S_TEXT/UTF8
Codec ID/Info                            : UTF-8 Plain Text
Duration                                 : 24 min 30 s
Bit rate                                 : 57 b/s
Frame rate                               : 0.211 FPS
Count of elements                        : 311
Stream size                              : 10.3 KiB (0%)
Title                                    : Indonesian (NF)
Language                                 : Indonesian
Default                                  : No
Forced                                   : No

Text #7
ID                                       : 10
Format                                   : UTF-8
Codec ID                                 : S_TEXT/UTF8
Codec ID/Info                            : UTF-8 Plain Text
Duration                                 : 24 min 30 s
Bit rate                                 : 73 b/s
Frame rate                               : 0.209 FPS
Count of elements                        : 308
Stream size                              : 13.2 KiB (0%)
Title                                    : Vietnamese (NF)
Language                                 : Vietnamese
Default                                  : No
Forced                                   : No

Text #8
ID                                       : 11
Format                                   : UTF-8
Codec ID                                 : S_TEXT/UTF8
Codec ID/Info                            : UTF-8 Plain Text
Duration                                 : 24 min 30 s
Bit rate                                 : 53 b/s
Frame rate                               : 0.211 FPS
Count of elements                        : 311
Stream size                              : 9.69 KiB (0%)
Title                                    : Chinese Traditional (NF)
Language                                 : Chinese
Default                                  : No
Forced                                   : No

Text #9
ID                                       : 12
Format                                   : UTF-8
Codec ID                                 : S_TEXT/UTF8
Codec ID/Info                            : UTF-8 Plain Text
Duration                                 : 24 min 30 s
Bit rate                                 : 53 b/s
Frame rate                               : 0.211 FPS
Count of elements                        : 311
Stream size                              : 9.68 KiB (0%)
Title                                    : Chinese Traditional (NF)
Language                                 : Chinese
Default                                  : No
Forced                                   : No

Text #10
ID                                       : 13
Format                                   : UTF-8
Codec ID                                 : S_TEXT/UTF8
Codec ID/Info                            : UTF-8 Plain Text
Duration                                 : 24 min 29 s
Bit rate                                 : 57 b/s
Frame rate                               : 0.209 FPS
Count of elements                        : 307
Stream size                              : 10.2 KiB (0%)
Title                                    : French (CR)
Language                                 : French
Default                                  : No
Forced                                   : No

Text #11
ID                                       : 14
Format                                   : UTF-8
Codec ID                                 : S_TEXT/UTF8
Codec ID/Info                            : UTF-8 Plain Text
Duration                                 : 24 min 29 s
Bit rate                                 : 72 b/s
Frame rate                               : 0.224 FPS
Count of elements                        : 330
Stream size                              : 12.9 KiB (0%)
Title                                    : Spanish Latin (CR)
Language                                 : Spanish
Default                                  : No
Forced                                   : No

Text #12
ID                                       : 15
Format                                   : UTF-8
Codec ID                                 : S_TEXT/UTF8
Codec ID/Info                            : UTF-8 Plain Text
Duration                                 : 24 min 29 s
Bit rate                                 : 66 b/s
Frame rate                               : 0.220 FPS
Count of elements                        : 324
Stream size                              : 12.0 KiB (0%)
Title                                    : Spanish Spain (CR)
Language                                 : Spanish
Default                                  : No
Forced                                   : No

Text #13
ID                                       : 16
Format                                   : UTF-8
Codec ID                                 : S_TEXT/UTF8
Codec ID/Info                            : UTF-8 Plain Text
Duration                                 : 24 min 30 s
Bit rate                                 : 66 b/s
Frame rate                               : 0.242 FPS
Count of elements                        : 356
Stream size                              : 12.0 KiB (0%)
Title                                    : Portuguese Brazil (CR)
Language                                 : Portuguese
Default                                  : No
Forced                                   : No

Text #14
ID                                       : 17
Format                                   : UTF-8
Codec ID                                 : S_TEXT/UTF8
Codec ID/Info                            : UTF-8 Plain Text
Duration                                 : 24 min 30 s
Bit rate                                 : 75 b/s
Frame rate                               : 0.203 FPS
Count of elements                        : 298
Stream size                              : 13.5 KiB (0%)
Title                                    : Arabic (CR)
Language                                 : Arabic
Default                                  : No
Forced                                   : No

Text #15
ID                                       : 18
Format                                   : UTF-8
Codec ID                                 : S_TEXT/UTF8
Codec ID/Info                            : UTF-8 Plain Text
Duration                                 : 24 min 30 s
Bit rate                                 : 88 b/s
Frame rate                               : 0.213 FPS
Count of elements                        : 313
Stream size                              : 15.9 KiB (0%)
Title                                    : Russian (CR)
Language                                 : Russian
Default                                  : No
Forced                                   : No

Text #16
ID                                       : 19
Format                                   : UTF-8
Codec ID                                 : S_TEXT/UTF8
Codec ID/Info                            : UTF-8 Plain Text
Duration                                 : 24 min 30 s
Bit rate                                 : 82 b/s
Frame rate                               : 0.267 FPS
Count of elements                        : 393
Stream size                              : 14.7 KiB (0%)
Title                                    : German (CR)
Language                                 : German
Default                                  : No
Forced                                   : No

Text #17
ID                                       : 20
Format                                   : UTF-8
Codec ID                                 : S_TEXT/UTF8
Codec ID/Info                            : UTF-8 Plain Text
Duration                                 : 24 min 29 s
Bit rate                                 : 59 b/s
Frame rate                               : 0.231 FPS
Count of elements                        : 339
Stream size                              : 10.6 KiB (0%)
Title                                    : Italian (CR)
Language                                 : Italian
Default                                  : No
Forced                                   : No

Menu
00:00:00.000                             : en:Prologue
00:00:44.044                             : en:Opening
00:02:14.009                             : en:Part A
00:11:34.986                             : en:Part B
00:22:49.994                             : en:Ending
00:24:19.958                             : en:Preview

Other Files in this Torrent
[HR] Frieren S01E14 [32274800].mkv
beta
Anime DDL+NZB mirror
Current Time: 25/05/2024 20:09



About/FAQs

Discord