File Size219.3 MB (229,928,047 bytes)
DownloadClickNUpload | Go4Up | Jheberg | MultiUp
  • ClickNupload
  • Fichier
  • Filerio
  • Free
  • Fufox
  • HugeFiles
  • Mightyupload
  • ToutBox
  • Turbobit
  • UpToBox
  • Uplea
  • UploadBaz
  • Uploadable
  • Uploaded
  • Uppit
  • Userscloud
| OpenLoad | Sendspace | SolidFiles
HashesCRC32: 29B8E7FC, MD5: 69CCB48131F810C7FA7F6DD310F14B5E, SHA1: B1E131C718AA0B4FBC95840C8C7791F013A50A37, SHA256: 2BAEBBCE8F9EB6D24C570C7D91D274829FE6B48C1F39358BE7BAFDB24EECD58B, ED2K: 1F24770925B87A5C86993BB45163666C
Screenshots
screenshotscreenshotscreenshotscreenshotscreenshot
SubtitlesAll Attachments | eng [ASS]
Additional Info
General
Unique ID                                : 190941137718947044110121709656143657486 (0x8FA5ECEBEB1AA224B51F875947A57A0E)
Complete name                            : [HorribleSubs] Gundam Build Fighters Battlogue - 02 [720p].mkv
Format                                   : Matroska
Format version                           : Version 4 / Version 2
File size                                : 219 MiB
Duration                                 : 10 min 56 s
Overall bit rate mode                    : Variable
Overall bit rate                         : 2 801 kb/s
Encoded date                             : UTC 2017-09-10 06:39:08
Writing application                      : mkvmerge v8.3.0 ('Over the Horizon') 32bit
Writing library                          : libebml v1.3.1 + libmatroska v1.4.2
Attachments                              : OpenSans-Semibold.ttf

Video
ID                                       : 1
Format                                   : AVC
Format/Info                              : Advanced Video Codec
Format profile                           : High@L3.1
Format settings, CABAC                   : Yes
Format settings, ReFrames                : 5 frames
Codec ID                                 : V_MPEG4/ISO/AVC
Duration                                 : 10 min 56 s
Bit rate mode                            : Variable
Bit rate                                 : 2 573 kb/s
Maximum bit rate                         : 4 500 kb/s
Width                                    : 1 280 pixels
Height                                   : 720 pixels
Display aspect ratio                     : 16:9
Frame rate mode                          : Constant
Frame rate                               : 23.976 (24000/1001) FPS
Color space                              : YUV
Chroma subsampling                       : 4:2:0
Bit depth                                : 8 bits
Scan type                                : Progressive
Bits/(Pixel*Frame)                       : 0.116
Stream size                              : 201 MiB (92%)
Default                                  : Yes
Forced                                   : No
Color range                              : Limited
Color primaries                          : BT.709
Transfer characteristics                 : BT.709
Matrix coefficients                      : BT.709

Audio
ID                                       : 2
Format                                   : E-AC-3
Format/Info                              : Enhanced Audio Coding 3
Format settings, Endianness              : Big
Codec ID                                 : A_EAC3
Duration                                 : 10 min 56 s
Bit rate mode                            : Constant
Bit rate                                 : 224 kb/s
Channel(s)                               : 2 channels
Channel positions                        : Front: L R
Sampling rate                            : 48.0 kHz
Frame rate                               : 187.500 FPS (256 spf)
Compression mode                         : Lossy
Stream size                              : 17.5 MiB (8%)
Default                                  : Yes
Forced                                   : No

Text
ID                                       : 3
Format                                   : ASS
Codec ID                                 : S_TEXT/ASS
Codec ID/Info                            : Advanced Sub Station Alpha
Duration                                 : 10 min 42 s
Bit rate                                 : 76 b/s
Count of elements                        : 132
Compression mode                         : Lossless
Stream size                              : 6.03 KiB (0%)
Language                                 : English
Default                                  : Yes
Forced                                   : No
beta
Anime DDL+NZB mirror
Current Time: 07/08/2020 12:54



About/FAQs