[HorribleSubs] Gundam Build Fighters Battlogue - 02 [480p].mkv


File Size92.59 MB (97,091,920 bytes)
DownloadClickNUpload | Go4Up | Jheberg | MultiUp
  • ClickNupload
  • Fichier
  • Filerio
  • Free
  • Fufox
  • HugeFiles
  • Mightyupload
  • ToutBox
  • Turbobit
  • UpToBox
  • Uplea
  • UploadBaz
  • Uploadable
  • Uploaded
  • Uppit
  • Userscloud
  • ZippyShare
| OpenLoad | Sendspace | SolidFiles
Encrypted DownloadDirect
Password:
HashesCRC32: 8BC02F0F, MD5: 9C160C0C1C4A6F2C02E9E247851EA022, SHA1: 2A001AB0A74CAF1E004CD88DB63869D08753DDDA, SHA256: 2DAABCA5781EB994D9B6ED24343B537DBA7C3291A88E8E9DA817ED5777A5681B, ED2K: F1E905B31D61D73DF370D3439AFA8B92
Screenshots
screenshotscreenshotscreenshotscreenshotscreenshot
SubtitlesAll Attachments | und [ASS]
Additional Info
General
Unique ID                                : 230418859849855021592789606254615206944 (0xAD590EE5C7454FA99A5096BDB8241C20)
Complete name                            : [HorribleSubs] Gundam Build Fighters Battlogue - 02 [480p].mkv
Format                                   : Matroska
Format version                           : Version 4 / Version 2
File size                                : 92.6 MiB
Duration                                 : 10 min 56 s
Overall bit rate mode                    : Variable
Overall bit rate                         : 1 183 kb/s
Encoded date                             : UTC 2017-09-10 06:38:14
Writing application                      : mkvmerge v8.3.0 ('Over the Horizon') 32bit
Writing library                          : libebml v1.3.1 + libmatroska v1.4.2
Attachments                              : OpenSans-Semibold.ttf

Video
ID                                       : 1
Format                                   : AVC
Format/Info                              : Advanced Video Codec
Format profile                           : Main@L3
Format settings, CABAC                   : Yes
Format settings, ReFrames                : 5 frames
Codec ID                                 : V_MPEG4/ISO/AVC
Duration                                 : 10 min 56 s
Bit rate mode                            : Variable
Bit rate                                 : 954 kb/s
Maximum bit rate                         : 2 400 kb/s
Width                                    : 720 pixels
Height                                   : 480 pixels
Display aspect ratio                     : 16:9
Frame rate mode                          : Constant
Frame rate                               : 23.976 (24000/1001) FPS
Color space                              : YUV
Chroma subsampling                       : 4:2:0
Bit depth                                : 8 bits
Scan type                                : Progressive
Bits/(Pixel*Frame)                       : 0.115
Stream size                              : 74.7 MiB (81%)
Default                                  : Yes
Forced                                   : No
Color range                              : Limited
Color primaries                          : BT.709
Transfer characteristics                 : BT.709
Matrix coefficients                      : BT.709

Audio
ID                                       : 2
Format                                   : E-AC-3
Format/Info                              : Enhanced Audio Coding 3
Format settings, Endianness              : Big
Codec ID                                 : A_EAC3
Duration                                 : 10 min 56 s
Bit rate mode                            : Constant
Bit rate                                 : 224 kb/s
Channel(s)                               : 2 channels
Channel positions                        : Front: L R
Sampling rate                            : 48.0 kHz
Frame rate                               : 187.500 FPS (256 spf)
Compression mode                         : Lossy
Stream size                              : 17.5 MiB (19%)
Default                                  : Yes
Forced                                   : No

Text
ID                                       : 3
Format                                   : ASS
Codec ID                                 : S_TEXT/ASS
Codec ID/Info                            : Advanced Sub Station Alpha
Duration                                 : 10 min 42 s
Bit rate                                 : 76 b/s
Count of elements                        : 132
Compression mode                         : Lossless
Stream size                              : 6.03 KiB (0%)
Default                                  : Yes
Forced                                   : No
beta
Anime DDL+NZB mirror
Current Time: 13/10/2019 21:45



About/FAQs