[HnY] Beyblade Burst Super Z - 46 (1280x720 x264 AAC) [55ACA748].mkv


File Size440.4 MB (461,799,591 bytes)
DownloadClickNUpload | Go4Up | Jheberg | MultiUp
  • BdUpload
  • DownAce
  • Fichier
  • FileCloud
  • Filerio
  • FilesCdn
  • IndiShare
  • Kbagi
  • Solidfiles
  • Turbobit
  • UpToBox
  • Uppit
| OpenLoad | ZippyShare
Sendspace: Part1, Part2
HashesCRC32: 55ACA748, MD5: B74B0B3A1AF2336D0239B0CE1616FC31, SHA1: 02A41FB6D260920835DCF6BD0F354AFF193FAF8D, SHA256: 633B2A8F0185450C7230A48F045D392647EC35FF4E0089B5C2C441CF02D524B5, ED2K: D23504AD83AAED16F4B77A1B6506FB6B
Screenshots
screenshotscreenshotscreenshotscreenshotscreenshot
SubtitlesAll Attachments | HnY Style Subtitles with Karaoke [eng, ASS], Classic Subtitles [eng, ASS]
Additional Info
General
Unique ID                                : 173355119736429507616091151722671133104 (0x826AFB4AE12F37B49BFB0B107EFA51B0)
Complete name                            : [HnY] Beyblade Burst Super Z - 46 (1280x720 x264 AAC) [55ACA748].mkv
Format                                   : Matroska
Format version                           : Version 4
File size                                : 440 MiB
Duration                                 : 24 min 0 s
Overall bit rate                         : 2 564 kb/s
Encoded date                             : UTC 2019-03-05 07:48:31
Writing application                      : mkvmerge v21.0.0 ('Tardigrades Will Inherit The Earth') 64-bit
Writing library                          : libebml v1.3.5 + libmatroska v1.4.8
Attachments                              : 12_Avenir_95_Black_09173.ttf / Avenir_LT_95_Black_Oblique.ttf

Video
ID                                       : 1
Format                                   : AVC
Format/Info                              : Advanced Video Codec
Format profile                           : Main@L3.1
Format settings                          : CABAC / 3 Ref Frames
Format settings, CABAC                   : Yes
Format settings, ReFrames                : 3 frames
Codec ID                                 : V_MPEG4/ISO/AVC
Duration                                 : 24 min 0 s
Bit rate                                 : 2 447 kb/s
Width                                    : 1 280 pixels
Height                                   : 720 pixels
Display aspect ratio                     : 16:9
Frame rate mode                          : Constant
Frame rate                               : 23.976 (24000/1001) FPS
Original frame rate                      : 23.976 (23976/1000) FPS
Color space                              : YUV
Chroma subsampling                       : 4:2:0
Bit depth                                : 8 bits
Scan type                                : Progressive
Bits/(Pixel*Frame)                       : 0.111
Stream size                              : 418 MiB (95%)
Writing library                          : x264 core 148 r2665kMod a01e339
Encoding settings                        : cabac=1 / ref=3 / deblock=1:1:1 / analyse=0x1:0x111 / me=tesa / subme=11 / psy=1 / fade_compensate=0.00 / psy_rd=0.60:0.20 / mixed_ref=1 / me_range=48 / chroma_me=1 / trellis=2 / 8x8dct=0 / cqm=0 / deadzone=21,11 / fast_pskip=1 / chroma_qp_offset=-3 / threads=12 / lookahead_threads=1 / sliced_threads=0 / nr=0 / decimate=1 / interlaced=0 / bluray_compat=0 / constrained_intra=0 / fgo=0 / bframes=2 / b_pyramid=0 / b_adapt=2 / b_bias=0 / direct=1 / weightb=1 / open_gop=0 / weightp=2 / keyint=48 / keyint_min=25 / scenecut=0 / intra_refresh=0 / rc_lookahead=48 / rc=2pass / mbtree=1 / bitrate=2447 / ratetol=1.0 / qcomp=0.68 / qpmin=10 / qpmax=69 / qpstep=15 / cplxblur=20.0 / qblur=0.5 / vbv_maxrate=5800 / vbv_bufsize=5800 / nal_hrd=none / filler=0 / ip_ratio=1.40 / aq=2:0.60
Language                                 : Japanese
Default                                  : Yes
Forced                                   : No

Audio
ID                                       : 2
Format                                   : AAC LC
Format/Info                              : Advanced Audio Codec Low Complexity
Codec ID                                 : A_AAC-2
Duration                                 : 24 min 0 s
Bit rate                                 : 125 kb/s
Channel(s)                               : 2 channels
Channel layout                           : L R
Sampling rate                            : 48.0 kHz
Frame rate                               : 46.875 FPS (1024 SPF)
Compression mode                         : Lossy
Stream size                              : 21.5 MiB (5%)
Language                                 : Japanese
Default                                  : Yes
Forced                                   : No

Text #1
ID                                       : 3
Format                                   : ASS
Codec ID                                 : S_TEXT/ASS
Codec ID/Info                            : Advanced Sub Station Alpha
Duration                                 : 23 min 57 s
Bit rate                                 : 180 b/s
Count of elements                        : 352
Compression mode                         : Lossless
Stream size                              : 31.7 KiB (0%)
Title                                    : HnY Style Subtitles with Karaoke
Language                                 : English
Default                                  : Yes
Forced                                   : No

Text #2
ID                                       : 4
Format                                   : ASS
Codec ID                                 : S_TEXT/ASS
Codec ID/Info                            : Advanced Sub Station Alpha
Duration                                 : 23 min 57 s
Bit rate                                 : 153 b/s
Count of elements                        : 298
Compression mode                         : Lossless
Stream size                              : 26.9 KiB (0%)
Title                                    : Classic Subtitles
Language                                 : English
Default                                  : No
Forced                                   : No

Menu
00:00:00.000                             : ja:Prologue
00:02:08.504                             : ja:Opening
00:03:38.510                             : ja:Part A
00:14:04.511                             : ja:Part B
00:22:05.534                             : ja:Ending
00:23:35.582                             : ja:Preview

Other Files in this Torrent
[HnY] Beyblade Burst Super Z - 46 (1280x720 x264 AAC) [55ACA748].mkv
beta
Anime DDL+NZB mirror
Current Time: 19/07/2019 06:46



About/FAQs