[HnY] Beyblade Burst Super Z - 24 (1280x720 x264 AAC) [8844DBED].mkv


File Size441.7 MB (463,150,272 bytes)
DownloadClickNUpload | Go4Up | Jheberg | MultiUp | OpenLoad | ZippyShare
Sendspace: Part1, Part2
HashesCRC32: 8844DBED, MD5: 3FEE414D4687D51924D9B002F71D0CB8, SHA1: 8811D71825E44F9EDA519A3CBDAB96ED4A0B7E85, SHA256: F7B06B61419CFC9E2B776849825D74E299947D1E841F80384DE99A20D87ED00B, ED2K: 360A97E8F3E00A55B3C862B886A9CFD3
Screenshots
screenshotscreenshotscreenshotscreenshotscreenshot
SubtitlesAll Attachments | HnY Style Subtitles with Karaoke [eng, ASS], Classic Subtitles [eng, ASS]
Additional Info
General
Unique ID                                : 322367807012291245595682650954745608798 (0xF285C800DC7B4866DB87BD37EEBD7A5E)
Complete name                            : [HnY] Beyblade Burst Super Z - 24 (1280x720 x264 AAC) [8844DBED].mkv
Format                                   : Matroska
Format version                           : Version 4
File size                                : 442 MiB
Duration                                 : 24 min 0 s
Overall bit rate                         : 2 571 kb/s
Encoded date                             : UTC 2019-03-06 19:21:55
Writing application                      : mkvmerge v21.0.0 ('Tardigrades Will Inherit The Earth') 64-bit
Writing library                          : libebml v1.3.5 + libmatroska v1.4.8
Attachments                              : 12_Avenir_95_Black_09173.ttf / Avenir_LT_95_Black_Oblique.ttf

Video
ID                                       : 1
Format                                   : AVC
Format/Info                              : Advanced Video Codec
Format profile                           : Main@L3.1
Format settings                          : CABAC / 3 Ref Frames
Format settings, CABAC                   : Yes
Format settings, ReFrames                : 3 frames
Codec ID                                 : V_MPEG4/ISO/AVC
Duration                                 : 24 min 0 s
Bit rate                                 : 2 447 kb/s
Width                                    : 1 280 pixels
Height                                   : 720 pixels
Display aspect ratio                     : 16:9
Frame rate mode                          : Constant
Frame rate                               : 23.976 (24000/1001) FPS
Original frame rate                      : 23.976 (23976/1000) FPS
Color space                              : YUV
Chroma subsampling                       : 4:2:0
Bit depth                                : 8 bits
Scan type                                : Progressive
Bits/(Pixel*Frame)                       : 0.111
Stream size                              : 420 MiB (95%)
Writing library                          : x264 core 148 r2665kMod a01e339
Encoding settings                        : cabac=1 / ref=3 / deblock=1:1:1 / analyse=0x1:0x111 / me=tesa / subme=11 / psy=1 / fade_compensate=0.00 / psy_rd=0.60:0.20 / mixed_ref=1 / me_range=48 / chroma_me=1 / trellis=2 / 8x8dct=0 / cqm=0 / deadzone=21,11 / fast_pskip=1 / chroma_qp_offset=-3 / threads=12 / lookahead_threads=1 / sliced_threads=0 / nr=0 / decimate=1 / interlaced=0 / bluray_compat=0 / constrained_intra=0 / fgo=0 / bframes=2 / b_pyramid=0 / b_adapt=2 / b_bias=0 / direct=1 / weightb=1 / open_gop=0 / weightp=2 / keyint=48 / keyint_min=25 / scenecut=0 / intra_refresh=0 / rc_lookahead=48 / rc=2pass / mbtree=1 / bitrate=2447 / ratetol=1.0 / qcomp=0.68 / qpmin=10 / qpmax=69 / qpstep=15 / cplxblur=20.0 / qblur=0.5 / vbv_maxrate=5800 / vbv_bufsize=5800 / nal_hrd=none / filler=0 / ip_ratio=1.40 / aq=2:0.60
Language                                 : Japanese
Default                                  : Yes
Forced                                   : No

Audio
ID                                       : 2
Format                                   : AAC LC
Format/Info                              : Advanced Audio Codec Low Complexity
Codec ID                                 : A_AAC-2
Duration                                 : 24 min 0 s
Bit rate                                 : 125 kb/s
Channel(s)                               : 2 channels
Channel layout                           : L R
Sampling rate                            : 48.0 kHz
Frame rate                               : 46.875 FPS (1024 SPF)
Compression mode                         : Lossy
Stream size                              : 21.5 MiB (5%)
Language                                 : Japanese
Default                                  : Yes
Forced                                   : No

Text #1
ID                                       : 3
Format                                   : ASS
Codec ID                                 : S_TEXT/ASS
Codec ID/Info                            : Advanced Sub Station Alpha
Duration                                 : 23 min 56 s
Bit rate                                 : 182 b/s
Count of elements                        : 371
Compression mode                         : Lossless
Stream size                              : 32.0 KiB (0%)
Title                                    : HnY Style Subtitles with Karaoke
Language                                 : English
Default                                  : Yes
Forced                                   : No

Text #2
ID                                       : 4
Format                                   : ASS
Codec ID                                 : S_TEXT/ASS
Codec ID/Info                            : Advanced Sub Station Alpha
Duration                                 : 23 min 56 s
Bit rate                                 : 154 b/s
Count of elements                        : 320
Compression mode                         : Lossless
Stream size                              : 27.2 KiB (0%)
Title                                    : Classic Subtitles
Language                                 : English
Default                                  : No
Forced                                   : No

Menu
00:00:00.000                             : ja:Prologue
00:01:56.533                             : ja:Opening
00:03:26.498                             : ja:Part A
00:11:23.475                             : ja:Part B
00:22:05.492                             : ja:Ending
00:23:35.541                             : ja:Preview
beta
Anime DDL+NZB mirror
Current Time: 14/12/2019 13:16



About/FAQs