[HnY] Beyblade Burst Super Z - 01 (1280x720 x264 AAC).mkv


File Size459.2 MB (481,511,805 bytes)
DownloadClickNUpload | DiskoKosmiko | Go4Up | Jheberg | MultiUp | OpenLoad | SolidFiles | ZippyShare
Sendspace: Part1, Part2
Encrypted DownloadDirect
Password:
HashesCRC32: 2B3FB02F, MD5: 098DC5212EC50DD10BCAF5BDEA9DB551, SHA1: 7D73AA92C765BEC06D5A2C42A89CD44137C1EE71, SHA256: F5D4B3859DA85C57A0442D660DE85C4AB0F55D8EFD3B26F358A22781DF195A26, ED2K: 16217A3DE8D9FB826DBF7C5EB9B6D3B8
Screenshots
screenshotscreenshotscreenshotscreenshotscreenshot
SubtitlesAll Attachments | eng [ASS]
Additional Info
General
Unique ID                                : 328638897006297139422008032901510750097 (0xF73D8C9C88143DA0215422CAE9C85F91)
Complete name                            : [HnY] Beyblade Burst Super Z - 01 (1280x720 x264 AAC).mkv
Format                                   : Matroska
Format version                           : Version 4 / Version 2
File size                                : 459 MiB
Duration                                 : 23 min 59 s
Overall bit rate                         : 2 676 kb/s
Encoded date                             : UTC 2018-04-13 07:18:26
Writing application                      : mkvmerge v21.0.0 ('Tardigrades Will Inherit The Earth') 64-bit
Writing library                          : libebml v1.3.5 + libmatroska v1.4.8

Video
ID                                       : 1
Format                                   : AVC
Format/Info                              : Advanced Video Codec
Format profile                           : High@L4.1
Format settings, CABAC                   : Yes
Format settings, ReFrames                : 4 frames
Codec ID                                 : V_MPEG4/ISO/AVC
Duration                                 : 23 min 59 s
Bit rate                                 : 2 481 kb/s
Width                                    : 1 280 pixels
Height                                   : 720 pixels
Display aspect ratio                     : 16:9
Frame rate mode                          : Constant
Frame rate                               : 23.976 (24000/1001) FPS
Color space                              : YUV
Chroma subsampling                       : 4:2:0
Bit depth                                : 8 bits
Scan type                                : Progressive
Bits/(Pixel*Frame)                       : 0.112
Stream size                              : 426 MiB (93%)
Language                                 : Japanese
Default                                  : Yes
Forced                                   : No
Color range                              : Limited
Color primaries                          : BT.709
Transfer characteristics                 : BT.709
Matrix coefficients                      : BT.709

Audio
ID                                       : 2
Format                                   : AAC
Format/Info                              : Advanced Audio Codec
Format profile                           : LC
Codec ID                                 : A_AAC
Duration                                 : 23 min 59 s
Bit rate                                 : 192 kb/s
Channel(s)                               : 2 channels
Channel positions                        : Front: L R
Sampling rate                            : 48.0 kHz
Frame rate                               : 46.875 FPS (1024 spf)
Compression mode                         : Lossy
Stream size                              : 33.0 MiB (7%)
Language                                 : Japanese
Default                                  : Yes
Forced                                   : No

Text
ID                                       : 3
Format                                   : ASS
Codec ID                                 : S_TEXT/ASS
Codec ID/Info                            : Advanced Sub Station Alpha
Duration                                 : 23 min 57 s
Bit rate                                 : 176 b/s
Count of elements                        : 414
Compression mode                         : Lossless
Stream size                              : 30.9 KiB (0%)
Language                                 : English
Default                                  : Yes
Forced                                   : No

Menu
00:00:00.000                             : ja:Prologue
00:01:02.937                             : ja:Opening
00:02:32.986                             : ja:Part A
00:11:27.895                             : ja:Part B
00:22:04.823                             : ja:Ending
00:23:34.830                             : ja:Preview
beta
Anime DDL+NZB mirror
Current Time: 18/07/2019 22:36



About/FAQs