File Size139.2 MB (145,973,980 bytes)
DownloadClickNUpload | DropAPK | Free | MultiUp
  • BdUpload
  • DownAce
  • Fichier
  • FileCloud
  • Filerio
  • FilesCdn
  • IndiShare
  • Kbagi
  • Turbobit
  • UpToBox
  • Uppit
| Sendspace | SolidFiles | ZippyShare
HashesCRC32: 05673E8C, MD5: E11EF9D88BCA242501AEB4086133C605, SHA1: 56E9D36DA466286154793EB1BE8DC935CCE2B4FF, SHA256: 0868B7D64CB5B4CD8F93A1F2561936452D994A3DF6DE0A161AF93EEB713FCCA2, ED2K: BDB315DFFEAFB9F30BDA51B8BD068FBC
Screenshots
screenshotscreenshotscreenshotscreenshotscreenshot
SubtitlesAll Attachments | English Subtitles [eng, ASS]
Additional Info
General
Unique ID                                : 336605487326908246636678674177518369107 (0xFD3BDBD6F6065B86D525B1B19B667953)
Complete name                            : [HnY] Beyblade Burst GT 51 (1280x720 x264 AAC) [05673E8C].mkv
Format                                   : Matroska
Format version                           : Version 4
File size                                : 139 MiB
Duration                                 : 12 min 25 s
Overall bit rate mode                    : Variable
Overall bit rate                         : 1 567 kb/s
Encoded date                             : UTC 2020-03-22 21:50:41
Writing application                      : mkvmerge v21.0.0 ('Tardigrades Will Inherit The Earth') 64-bit
Writing library                          : libebml v1.3.5 + libmatroska v1.4.8
Attachments                              : OpenSans-Semibold.ttf

Video
ID                                       : 1
Format                                   : AVC
Format/Info                              : Advanced Video Codec
Format profile                           : Main@L3.1
Format settings                          : CABAC / 3 Ref Frames
Format settings, CABAC                   : Yes
Format settings, ReFrames                : 3 frames
Codec ID                                 : V_MPEG4/ISO/AVC
Duration                                 : 12 min 25 s
Bit rate mode                            : Variable
Bit rate                                 : 1 434 kb/s
Maximum bit rate                         : 40.0 Mb/s
Width                                    : 1 280 pixels
Height                                   : 720 pixels
Display aspect ratio                     : 16:9
Frame rate mode                          : Constant
Frame rate                               : 30.000 FPS
Color space                              : YUV
Chroma subsampling                       : 4:2:0
Bit depth                                : 8 bits
Scan type                                : Progressive
Bits/(Pixel*Frame)                       : 0.052
Stream size                              : 127 MiB (92%)
Language                                 : Japanese
Default                                  : Yes
Forced                                   : No
Color range                              : Limited
Color primaries                          : BT.709
Transfer characteristics                 : BT.709
Matrix coefficients                      : BT.709

Audio
ID                                       : 2
Format                                   : AAC LC
Format/Info                              : Advanced Audio Codec Low Complexity
Codec ID                                 : A_AAC-2
Duration                                 : 12 min 25 s
Bit rate                                 : 128 kb/s
Channel(s)                               : 2 channels
Channel layout                           : L R
Sampling rate                            : 44.1 kHz
Frame rate                               : 43.066 FPS (1024 SPF)
Compression mode                         : Lossy
Delay relative to video                  : -9 ms
Stream size                              : 11.4 MiB (8%)
Language                                 : Japanese
Default                                  : Yes
Forced                                   : No

Text
ID                                       : 3
Format                                   : ASS
Codec ID                                 : S_TEXT/ASS
Codec ID/Info                            : Advanced Sub Station Alpha
Duration                                 : 11 min 55 s
Bit rate                                 : 94 b/s
Count of elements                        : 173
Compression mode                         : Lossless
Stream size                              : 8.23 KiB (0%)
Title                                    : English Subtitles
Language                                 : English
Default                                  : Yes
Forced                                   : No

Menu
00:00:00.000                             : ja:Prologue
00:00:30.167                             : ja:Opening
00:01:15.233                             : ja:Episode
00:11:35.028                             : ja:Preview
00:12:00.052                             : :Ending
beta
Anime DDL+NZB mirror
Current Time: 05/08/2020 16:07



About/FAQs